&title=スーサイドパレヱド
&artist=ユリイ・カノン
&first=0.008
&des=Tane
&lv_1=4
&lv_2=5
&lv_3=8
&lv_4=11
&lv_5=14
&inote_1=(176){1},,
{4}3h[8:4],,,,
{4}4h[8:4],,,,
{4}6h[8:4],,,,
{8}5h[8:3],,,,
,,,,
{4}34,,2,,
{2}1h[2:1]/2h[2:1],,
{4}78,,6,,
{1}4^7[2:1],
{4}65,,7,,
{2}8h[2:1]/7h[2:1],,
{4}21,,3,,
{1}5^2[2:1],
{2}1h[2:1],,
{2}3h[2:1],,
{2}8h[2:1],,
{2}6h[2:1],,
{4}4,,2,,
{2}34,56,
{4}6,,6,,
{4}7,,6,,
{4}5,,7,,
{2}65,43,
{4}3,,3,,
{4}2,,3,,
{4}2,,1,,
{4}1,,3,,
{4}6,,5,,
{4}3,,5,,
{4}7,,8,,
{4}18,,18,,
{4}34,,56,,
{4}45,,36,,
{4}5-8[4:2],,,,
{4}4-1[4:2],,,,
{4}7^4[4:2],,,,
{4}8,,26,,
{4}2-5[4:2],,,,
{4}7-4[4:2],,,,
{4}34,,56,,
{1}45,
{4}4-1[4:2],,,,
{4}5-8[4:2],,,,
{4}2^5[4:2],,,,
{4}1,,73,,
{4}7-4[4:2],,,,
{4}2-5[4:2],,,,
{4}65,,43,,
{1}54,
{8}1,,,,
,,,8,
{8},,,,,,,,
{8}1,,,,
,,,8,
{8},,,,
,,,,
{4}18,,,,
{4}81,,,,
{8}3,,,,
6,,,,
{1}36,
{4}8-5[4:2],,,,
{4}1-4[4:2],,,,
{4}6^1[4:2],,,,
{4}5,,37,,
{4}3-8[4:2],,,,
{4}6-1[4:2],,,,
{4}21,,87,,
{1}18,
{4}1-4[4:2],,,,
{4}8-5[4:2],,,,
{4}3^8[4:2],,,,
{4}4,,62,,
{4}6-1[4:2],,,,
{4}3-8[4:2],,,,
{4}78,,12,,
{1}81,
{4}56,,34,,
{4}12,,78,,
{4}56,,34,,
{4}12,,78,,
{4}7-4[4:2],,,,
{4}2-5[4:2],,,,
{4}65,,43,,
{1}54
{4}7,,2,,
{8}7,,,,
7,,,,
{2}7-4[4:2],,
{8}6,,,,
6,,,,
{1}5p4[8:5],
{8}2,,,,
2,,,,
{2}2-5[4:2],,
{8}3,,,,
3,,,,
{1}4q5[8:5],
{2}4h[2:1],,
{2}2h[2:1],,
{2}5h[2:1],,
{2}7h[2:1],,
{2}1h[2:1],,
{2}3h[2:1],,
{2}5h[2:1],,
{2}7h[2:1],,
{16}18,,,,
,,18,,
,,,,
18,,,,
,,,,
{1},,,,,,,,
&inote_2=(176){1},,
{4}3h[8:4],,,,
{4}4h[8:4],,,,
{4}6h[8:4],,,,
{8}5h[8:3],,,,
,,,,
{4}34,,2,,
{2}1h[2:1]/2h[2:1],,
{4}78,,6,,
{1}4^7[2:1],
{4}65,,7,,
{2}8h[2:1]/7h[2:1],,
{4}21,,3,,
{1}5^2[2:1],
{2}1h[2:1],,
{2}3h[2:1],,
{2}8h[2:1],,
{2}6h[2:1],,
{4}4,,2,,
{2}34,56,
{4}6,,6,,
{4}7,,6,,
{4}5,,7,,
{2}65,43,
{4}3,,3,,
{4}2,,3,,
{4}2,,1,,
{4}1,,3,,
{4}6,,5,,
{4}3,,5,,
{4}7,,8,,
{4}18,,18,,
{4}34,,56,,
{4}45,,36,,
{4}5-8[4:2],,,,
{4}4-1[4:2],,,,
{4}7^4[4:2],,2,,
{4}8,,26,,
{4}2-5[4:2],,,,
{4}7-4[4:2],,,,
{4}34,,56,,
{1}4-1[4:2]/5-8[4:2],
{4}4-1[4:2],,,,
{4}5-8[4:2],,,,
{4}2^5[4:2],,7,,
{4}1,,73,,
{4}7-4[4:2],,,,
{4}2-5[4:2],,,,
{4}65,,43,,
{1}5-8[4:2]/4-1[4:2],
{8}1,,,,
,,,8,
{8},,,,,,,,
{8}1,,,,
,,,8,
{8},,,,
,,,,
{4}18,,3,,
{4}81,,6,,
{8}3,,,,
6,,,,
{1}3-8[4:2]/6-1[4:2],
{4}8-5[4:2],,,,
{4}1-4[4:2],,,,
{4}6^1[4:2],,3,,
{4}5,,37,,
{4}3-8[4:2],,,,
{4}6-1[4:2],,,,
{4}21,,87,,
{1}1-4[4:2]/8-5[4:2],
{4}1-4[4:2],,,,
{4}8-5[4:2],,,,
{4}3^8[4:2],,6,,
{4}4,,62,,
{4}6-1[4:2],,,,
{4}3-8[4:2],,,,
{4}78,,12,,
{1}8-5[4:2]/1-4[4:2],
{4}56,,34,,
{4}12,,78,,
{4}56,,34,,
{4}12,,78,,
{4}7-4[4:2],,,,
{4}2-5[4:2],,,,
{4}65,,43,,
{1}5-8[4:2]/4-1[4:2],
{4}7,,2,,
{8}7,,,,
7,,7,,
{2}7-4[4:2],,
{8}6,,,,
6,,6,,
{1}5p4[4:2],
{8}2,,,,
2,,2,,
{2}2-5[4:2],,
{8}3,,,,
3,,3,,
{1}4q5[4:2],
{2}4h[2:1],,
{2}2h[2:1],,
{2}5h[2:1],,
{2}7h[2:1],,
{2}1h[2:1],,
{2}3h[2:1],,
{2}5h[2:1],,
{2}7h[2:1],,
{16}18,,,,
,,18,,
,,,,
18,,,,
,,,,
{1},,,,,,,,
&inote_3=(176){1},,
{4}3h[8:4]/4,,,,
{4}4h[8:4]/5,,,,
{4}6h[8:4]/5,,,,
{8}5h[8:3]/4,,,,
,,,,
{4}34,34,2,1,
{2}1h[4:1]/2h[4:1],1h[4:1]/8h[4:1],
{4}78,78,6,5,
{1}4^7[2:1],
{4}65,65,7,8,
{2}8h[4:1]/7h[4:1],8h[4:1]/1h[4:1],
{4}21,21,3,4,
{1}5^2[2:1],
{2}1h[4:1],2h[4:1],
{2}3h[4:1],4h[4:1],
{2}8h[4:1],7h[4:1],
{2}6h[4:1],5h[4:1],
{4}4,3,2,,
{2}34,56,
{4}6,5,6,5,
{4}7,4,6,5,
{4}5,6,7,,
{2}65,43,
{4}3,4,3,4,
{4}2,5,3,4,
{4}2,2,1,,
{4}1,2,3,4,
{4}6,6,5,,
{4}3,4,5,6,
{4}7,7,8,,
{4}18,18,18,,
{4}34,34,56,56,
{4}45,45,36,,
{4}5-8[4:2],,4,4,
{4}4-1[4:2],,5,5,
{4}7^4[4:1],,2^5[4:1],,
{4}8,71,26,,
{4}2-5[4:2],,1,1,
{4}7-4[4:2],,8,8,
{4}34,34,56,56,
{1}4-1[4:2]/5-8[4:2],
{4}4-1[4:2],,5,5,
{4}5-8[4:2],,4,4,
{4}2^5[4:1],,7^4[4:1],,
{4}1,28,73,,
{4}7-4[4:2],,8,8,
{4}2-5[4:2],,1,1,
{4}65,65,43,43,
{1}5-8[4:2]/4-1[4:2],
{8}1h[8:7],,,,
,,,8h[8:9],
{8},,,,,,,,
{8}1h[8:7],,,,
,,,8h[8:7],
{8},,,,
,,,,
{4}18,2,3,,
{4}81,7,6,,
{8}3,,3,,
6,,6,,
{1}3-8[4:2]/6-1[4:2],
{4}8-5[4:2],,1,1,
{4}1-4[4:2],,8,8,
{4}6^1[4:1],,3^8[4:1],,
{4}5,64,37,,
{4}3-8[4:2],,4,4,
{4}6-1[4:2],,5,5,
{4}21,21,87,87,
{1}1-4[4:2]/8-5[4:2],
{4}1-4[4:2],,8,8,
{4}8-5[4:2],,1,1,
{4}3^8[4:1],,6^1[4:1],,
{4}4,35,62,,
{4}6-1[4:2],,5,5,
{4}3-8[4:2],,4,4,
{4}78,78,12,12,
{1}8-5[4:2]/1-4[4:2],
{4}56,56,34,34,
{4}12,12,78,78,
{4}56,56,34,34,
{4}12,12,78,78,
{4}7-4[4:2],,8,8,
{4}2-5[4:2],,1,1,
{4}65,65,43,43,
{1}5-8[4:2]/4-1[4:2],
{4}7,7,2,2,
{8}7,,78,,
7,8,7,,
{2}7-4[4:1],1-5[4:1],
{8}6,,56,,
6,5,6,,
{1}5p4[4:2],
{8}2,,21,,
2,1,2,,
{2}2-5[4:1],8-4[4:1],
{8}3,,43,,
3,4,3,,
{1}4q5[4:2],
{2}4h[4:1],3h[4:1],
{2}2h[4:1],1h[4:1],
{2}5h[4:1],6h[4:1],
{2}7h[4:1],8h[4:1],
{2}1h[4:1],2h[4:1],
{2}3h[4:1],4h[4:1],
{2}5h[4:1],6h[4:1],
{2}7h[4:1],8h[4:1],
{16}1h[4:1]/8h[4:1],,,,
,,1h[4:1]/8h[4:1],,
,,,,
1h[4:1]/8h[4:1],,,,
,,,,
{1},,,,,,,,
&inote_4=(176){1},,
{4}3h[8:3]/4,,3,34,
{4}4h[8:3]/5,,4,35,
{4}6h[8:3]/5,,6,65,
{8}5h[8:3]/4,,,4,
,,,,
{8}3,,24,,
2,2,1,,
{4}1,34,8,56,
{8}3,,34,,
3,3,1,,
{16}2-6[8:1],,,,
,,,,
8,,,7,
,,6,,
{8}6,,75,,
7,7,8,,
{4}8,65,1,43,
{8}6,,65,,
6,6,8,,
{4}7-3[8:1],2,2-4[8:1],,
{2}5-8[2:1],4-1[2:1],
{2}5-8[2:1],4-1[2:1],
{2}5^8[2:1],4^1[2:1],
{2}5^8[2:1],4,
{4}2,21,2,34,
{8}3,4,2,,
2,4,3,,
{8}5,5,4,,
3,3,4,,
{8}5,5,3,3,
4,4,5,,
{4}7,78,7,65,
{8}6,5,7,,
7,5,6,,
{8}4,4,7,7,
2,2,5,5,
{8}1,8,1,8,
18,18,18,,
{8}2q6[8:3],,7,,
8,8,,8<4[4:2],
{8},,1,1,
2,2,34,,
{8}5^8[8:3],,3,,
2,2,,3q5[4:2],
{8},,6,6,
7,7,57,,
{8}7-4[8:1],,2-5[8:1],,
8,8,,8<5[4:2],
{8},,3,3,
4-1[8:1],,,,
{8}8,8,1,1,
7,7,2,2,
{8}6,3,5,4,
3b/6b,,4-1[8:1],,
{8}5<2[4:1],,3,,
4,4-1[8:1],,5h[8:3],
{8},,4,4,
4-1[8:1]/5-8[8:1],,,,
{8}7-2[8:1],,3-6[8:1],,
8,8<3[4:1],,2h[8:3],
{8},,3,3,
2,23,23,,
{8}2>6[4:1],,6,,
7,7-4[8:1],,1h[8:3],
{8},,4,4,
1-3[8:1]/4-8[8:1],,,,
{8}7,7,5,5,
4,4,2,2,
{8}2^5[8:1]/4,,,7^4[8:1],
,,,,
{8}4>7[4:1],,6,,
5,5-8[8:1],,4h[8:3],
{8},,5,5,
5-8[8:1]/4-1[8:1],,,,
{8}2-7[8:1],,6-3[8:1],,
1,1>6[4:1],,7h[8:3],
{8},,6,6,
7,76,76,,
{8}7<3[4:1],,3,,
2,2-5[8:1],,8h[8:3],
{8},,5,5,
8-6[8:1]/5-1[8:1],,,,
{8}2,2,4,4,
5,5,7,7,
{8}7<2[8:3],,,,
,,,,
{8}1h[8:7],,,,
,,,4h[8:9],
{8},,,,,,,,
{8}7h[8:7],,,,
,,,8h[8:7],
{8},,,,
,,,,
{4}18,2,4-2[8:1],,
{4}81,7,5-7[8:1],,
{8}3,3,6,6,
3,6,4,5,
{16}4h[4:1]/5h[4:1],,,,
,,3h[4:1]/6h[4:1],,
,,,,
27,,,,
{8}8<3[4:1],,2,,
1,1-4[8:1],,8h[8:3],
{8},,1,1,
1-5[8:1]/8-4[8:1],,,,
{8}6-1[8:1],,2-7[8:1],,
5,5<2[4:1],,3h[8:3],
{8},,4,4,
3,34,34,,
{8}3>7[4:1],,7,,
6,6-1[8:1],,4h[8:3],
{8},,1,1,
4-8[8:1]/1-5[8:1],,,,
{8}6,6,8,8,
1,1,3,3,
{8}3^8[8:1]/1,,,6^1[8:1],
,,,,
{8}1>6[4:1],,7,,
8,8-5[8:1],,1h[8:3],
{8},,8,8,
8-4[8:1]/1-5[8:1],,,,
{8}3-8[8:1],,7-2[8:1],,
4,4>7[4:1],,6h[8:3],
{8},,5,5,
6,65,65,,
{8}6<2[4:1],,2,,
3,3-8[8:1],,5h[8:3],
{8},,8,8,
5-1[8:1]/8-4[8:1],,,,
{8}3,3,1,1,
8,8,6,6,
{8}6^1[8:1]/8,,,3^8[8:1],
,,,,
{8}7,7b,3,3b,
5,5b,4,4b,
{8}7,7b,3,3b,
4,4b,5,5b,
{8}6,6b,2,2b,
8,8b,6,6b,
{8}4,4b,2,2b,
8,28,28,,
{8}7<3[4:1],,3,,
2,2>6[4:1],,8h[8:3],
{8},,5,5,
8-4[8:1]/5-2[8:1],,,,
{8}2,2,4,4,
5,5,7,7,
{8}7<2[8:3],,,,
,,,,
{8}3h[4:1],,4h[4:1],,
5,5,6,6,
{8}7,,67,,
7,8,7,8,
{8},1,8,2,
1-5[8:1],,,,
{8}2,,34,,
3,4,3,4,
{8},5,4,6,
{16}5,,,46,
,,37,,
{8}2,,32,,
2,1,2,1,
{8},8,1,7,
8-4[8:1],,,,
{8}7,,65,,
6,5,6,5,
{8},4,5,3,
4-1[8:1]*-7[8:1],,,,
{2}8-5[8:3],1-4[8:3],
{2}8-5[8:3],1-4[8:3],
{2}8^5[8:3],1^4[8:3],
{2}8-4[8:3],1-5[8:3],
{2}8v3[8:3],1-4[8:3],
{2}8-5[8:3],1v6[8:3],
{2}8p4[8:3],1v6[8:3],
{2}8q5[8:3],1,
{16}4h[4:1]/5h[4:1],,,,
,,4h[4:1]/5h[4:1],,
,,,,
4h[4:1]/5h[4:1],,,,
,,,,
{1},,,,,,,,
&inote_5=(176){1},,
{8}3,34,,3,
2-5[8:1]/4,,1,,
{8}4,46,,4,
3-8[8:1]/5,,4,,
{8}6,65,,6,
7-4[8:1]/5,,8,,
{8}5,5/3-5[8:1],,6,
,,,,
{16}46,,3,4,
2,,6,5,
7,,1-5[8:1],,
8,,1,,
{16},,7,5,
6^3[8:1],,3,,
6,,,,
1,,1,,
{16}25,,1,4,
2,,8,5,
7,,2-5[8:1],,
6,,2,,
{16},,7,5,
8,,18,,
27,,,38,
,,61,,
{16}53,,6,5,
7,,3,4,
2,,8-4[8:1],,
1,,8,,
{16},,2,4,
3^6[8:1],,6,,
3,,,,
8,,8,,
{16}74,,8,5,
7,,1,4,
2,,7-4[8:1],,
3,,7,,
{16},,2,4,
1,,18,,
2-7[16:2]/7,,,,
5h[4:1],,,,
{4}1h[2:1],3,7h[2:1],5,
{4}2h[2:1],4,6h[2:1],8,
{4}3h[2:1],1,5h[2:1],7,
{4}4h[2:1],2,{8}5,36,36,,
{8}2-5[8:1],,8,8,
7-4[8:1],,1,2-5[8:1],
{8},8,7-4[8:1],7,
2-5[8:1],2,6,6,
{16}47,,47,,
3,5,3,,
25,,25,,
6,4,6,,
{16}4,5,3,6,
4,5,4,5,
3,6,3,6,
4,5,3,6,
{8}2-5[8:1],2,1,,
7-4[8:1],,2,1-5[8:1],
{8},7,8-4[8:1],8,
2-5[8:1],2,7,7,
{16}3,4,3,,
6,5,6,,
2,1,2,,
7,8,7,,
{16}2,7,2,7,
1,8,1,8,
27,,36,,
45,,,,
{8}2,2q6[8:1],8,2,
8,8<3[4:1],,2h[4:1],
{8},,1,1,
28,37,46,,
{8}5,5^8[8:1],3,5,
3,3qq6[4:1],,8h[4:1],
{8},,7,7,
86,15,24,,
{16}3,5,{8}3,7-3[8:1],8,
7,1qq5[8:3],,4h[4:1],
{8},,4,4,4w8[8:1]
,,,,
{16}2,1,2,,
7,8,7,,
3,4,3,,
6,5,6,,
{8}78,34,12,56,
2/7V15[8:3],,3v5[8:1],,
{8}3,,8/1^3[8:1],,
1,8V63[4:1],,1h[4:1],
{8},,2-7[8:1],2,
5w1[8:1],,,,
{8}8-5[8:1],8,3-6[8:1],3,
8,8<3[4:1],,2h[4:1],
{8},,1,1,
2/8-2[8:1],28,28,,
{8}3^6[8:1],,7p3[8:1],,
2,1>6[4:1],,8h[4:1],
{8},,8-6[8:1],8,
5qq3[8:1]*-8[8:1],,,,
{8}1^4[8:1],1,6^3[8:1],6,
1^4[8:1],1,6,6,
{16}6h[4:1],4,3,2,
1,,3h[4:1],5,
6,7,8,,
8z4[8:3],,,,
{8}2-7[8:1],,2,,
6,1V36[4:1],,7h[4:1],
{8},,8-5[8:1],8,
4w8[8:1],,,,
{8}5^3[8:1]/8-5[8:1],,58,,
1,1q6[4:1],,8,
{8}8p3[4:1],,1h[8:1],,
1,28,28,,
{8}6/3-8[8:1],,7-3[8:1],,
1,1pp5[8:3],,6h[4:1],
{8},,7^4[8:1],8,
7/1-5[8:1],,1/8,,
{8}4^1[8:1],4,7^4[8:1],7,
2^7[8:1],2,5,5,
{16}5h[4:1],8,1,2,
3,,4h[4:1],5,
6,7,8,,
,,,,
{8}5h[8:15]/4h[4:3],,,,
,,,7h[8:15],
{8},,,,,,,,
{8}2h[8:11],,,,
,,,1h[8:7],
{8},,,,{16}8,7,6,5,
4,,,,
{8}23,,
5,,4-6[8:1],3,3,,
{8}23,,
8,,1-7[8:1],4,4,,
{8}76,,
4,,76,,1,,
{16}5h[4:1],4,3,2,
1,,1h[4:1],5,
6,7,8,,
2,7,2,,
{8}4-2[8:1]/8-5[8:1],,4^7[8:1],,
1,2pp6[8:3],,8h[4:1],
{8},,7^4[8:1],8,
7/1q5[8:1],,1/8-4[8:1],,
{8}8/3-1[8:1],,3/8p4[8:1],,
8/2,1pp5[8:3],,8h[4:1],
{8},,8,7,
5,46,4/6-4[8:1],,
{8}6-8[8:1]/1-4[8:1],,1-5[8:1],,
7,6pp3[8:3],,2h[4:1],
{8},,2^5[8:1],1,
2/8p4[8:1],,1/8,,
{8}5^8[8:1],5,2^5[8:1],2,
7^2[8:1],7,4,4,
{16}4h[4:1],8,7,6,
5,,5h[4:1],4,
3,2,1,,
2v3[8:1]/6-2[8:1],,,,
{8}2^5[8:1]/6^1[8:1],,2-7[8:1],,
6,5pp1[8:3],,2h[4:1],
{8},,3^6[8:1],2,
3/8-4[8:1],,18,,
{8}5^8[8:1],5,2^7[8:1],2,
5,5<2[4:1],,3h[4:1],
{8},,4,4,
8,71,7-5[8:1]/1,,
{8}7-1[8:1]/3-6[8:1],,7^4[8:1],,
3,2pp5[8:3],,8h[4:1],
{8},,6^3[8:1],7,
6/1-5[8:1],,18,,
{8}8p3[8:1],8,2p5[8:1],2,
4p7[8:1],4,1,1,
{16}1h[4:1],6,5,4,
3,,8h[4:1],3,
4,5,6,,
2^5[8:1]/7,,,,
{8}2/8-4[8:1],6b,8/1q5[8:1],2b,
1/7-4[8:1],8b,7/3^6[8:1],1b,
{8}3/8p4[8:1],7b,8/2-5[8:1],1b,
2/6^3[8:1],8b,6/1-5[8:1],3b,
{8}1/8^6[8:1],6b,8/3-6[8:1],2b,
3/7^4[8:1],8b,7/1^3[8:1],3b,
{8}1/6-3[8:1],7b,6/2^5[8:1],1b,
8-3[8:1]*-5[8:1]/2,,,,
{8}8^5[8:1]/4^1[8:1],,4-8[8:1],,
1,1pp4[8:3],,5h[4:1],
{8},,6^3[8:1],8,6/2-6[8:1]
,,28,,
{16}7,1,7,1,
6,2,6,2,
5,3,5,3,
4,4,4,4,
{16}4,3,2,1,
8,,4,5,
6,7,8,,
5h[8:1]/7h[8:1],,,,
{8}7^4[8:1],7,1^4[8:1],1,
7^4[8:1],7,{16}3,2,1,8,
{8}7^2[8:1]/3^6[8:1],,7-3[8:1],,
1,1pp5[8:3],1,1,
{16},,6,7,
8qq4[8:3],,8,,
3,2,1,,
1,,1,,
{8}2^5[8:1]/6^1[8:1],,6-2[8:1],,
7,7qq4[8:3],7,7,
{16},,3,2,
1,,1,,
34,,,18,
,,56,,
{16}24,,3,4,
1,,6,5,
8-4[8:1],,1-5[8:1],,
8,,1,,
{16},,8,5,
6,,1,4,
3^6[8:1],,6,,
3,,8,,
{16}18,,7,5,
8,,2,4,
1^4[8:1],,8^5[8:1],,
1,,8,,
{16},,2,4,
3,,7,5,
6-3[8:1],,,,
2-7[8:1],,,,
{4}5h[2:1],7,3h[2:1],1,{4}7h[2:1],5,1h[2:1],3,
{4}8h[2:1],6,2h[2:1],4,{4}6h[2:1],8,4h[2:1],2,
{8}5h[2:1],6,7,,3h[2:1],2,1,,{8}7h[2:1],6,5,,1h[2:1],2,3,,
{8}8h[2:1],7,6,,2h[2:1],3,4,,{8}6h[2:1],7,8,,4h[2:1],3,2,,
{16}5b,4,5,4,
5,,4b,5,
4,5,4,,
5b,4,5,4,
5,,,,
{4},,,,{4},,,,{4},,,,
{1},,,,,,,,
