&title=ANiMA
&artist=xi
&first=-0.015
&des=killermatt
&lv_6=14+
&inote_6=(183.5){4},,,,
3h[4:3]/5h[8:7],,,,4h[4:3]/5h[8:7],,,,3h[4:4]/4h[4:4],,,,,B8,C,B4,
3h[4:3]/5h[8:7],,,,2h[4:1]/6h[4:3],,4h[4:1],,3h[4:1]/5h[4:4],,7h[4:1],,
1b>4[4:2],8,7,6,
{8}1bpp5b[4:3]/5h[4:2],,,,,6,7,8,8>7[4:3],,,,,8,1,2,
3b-7V14b[4:2],,,,B6h[4:1]/B5h[4:1],,,,2xb-4b[8:1]/1xb-5[8:1],,1xb/2xb,,7bxh[4:1]/8bx,,{16}5<8[8:1],4,3,2,A5f/1/E6/B5,,,,2,1,2,1,3,1,4,8,3,7,2,8,
1bh[4:1],,,,7,8,7,8,6,8,5,1,6,2,7,1,8b,,1,7,1,6,1,5,2b,4,2,5,3,6,3,7,
4b/8,3,2,1,48,7,6,5,4/1b,2,3,4,51,62,73,84,
{4}1h[4:1]/5h[4:1],,7b/B1/E1/E2/A1,3b-8b[8:1]/A5f/E6/E5/B5,
{8}3/7,7<4[8:1],7,7/2,2v5b[8:1],2,2/6,6-1[8:1],6,6/4,4>1[8:1],4,4/5<8[8:1],6,4-8b[8:1]/5,3,
4/5,6-2[8:1],7,62,1-4b[8:1],8,1/7,8<5[8:1],1,8b/2b,3bh[4:1],,4b-8[8:1],
{16}1,1,Cf/4,,,,
26,,3,5,4,,37,,6,4,5,,
38,,2,1,2,,61,,7,8,7,,1b-4[8:1]/6b-4[8:1],,,,1b/6b,,,,
2b/8bh[8:1],,5,8h[8:1],3,,1bh[8:1]/7b,,4,1h[8:1],6,,
5hbh[8:1]/3b,,2,5h[8:1],1,,4hbh[8:1]/6b,,7,4h[8:1],8,,
{32}31,4,5,6,7,8,1,2,35,6,7,8,1,2,3,4,
{12}1b/5,1,1,26,6,6,{8}37,,{16}4,6,3,5,2h[4:1],,,,{24}E5,E6,E7,E8/3h[4:1],
,,{8},1,{16}45,6,7,8,2/1h[4:1],,5,4,3,2,1,8,7-3[8:1]/4-6[8:1],,,,4b/7b,,,,2-6[8:1]/7-1[8:1],,,,2b/7b,,,,5,4,3,2,8,7,6,5,
{4}4/1b-4b[8:1],1b/8b-5[8:1],8b/B2/B3/E3f,{16}4,3,2,1,
{4}8/5b-8[8:1],5b/4b,{16}1b/B7/B6/E7f,,2,4,3,5,4,6,
5b,7,5,7,5,7,5,7,1b,4,1,4,3b,8,3,8,
2b,,{24}7,6,5,4/3h[4:1],,,{16}5,6,{4}7-2[8:1]*-4[8:1],7b,
3b/8b,{12}21,2,2,53,5,5,46,4,4,{24}57,,,8,7,6,{4}5/1,4-8[8:1]/2-5[8:1],24,
{16}17,,2,6,4,5,3,8,2h[8:1],,6,3,7,4,5,1,8h[8:1],,2,7,3,6,4,5,3-1[8:1]/6-8[8:1],,,,36,,,,
3b/5b,,,,{12}78,7,7,46,4,4,35,5,5,{24}24,,,53,62,71,{4}8-5[8:1]*-3[8:1],8b-4[8:1],8b/1b,
{16}2b/7b,,36,,4,5,4,5,3b/6b,,27,,8,1,8,1,
7b/2,6,5,4,37,2,1,8,72,,{24}6,5,6,5,,,3,4,3,
{12}4<1[4:1],,,1-4<7b[8:2],2,3,4,,,{16}1,,,,
2b,8,2,,2b,1,2,,3b,4,3,,3b,5,3,,
4>7b[4:1]/6,,,,{12}7-3-1[4:1],6,5,4,,,A8/B8,,,
{16}7b,1,7,,7b,8,7,,6b,5,6,,6b,4,6,,
{12}53,,,42,3,6,5-1[8:1]*-8[8:1]/4,,,5b,,,
{16}2b,3,2,,3b,4,3,,6b,5,6,,7b,6,7,,
{8}1-5[8:1]/8,1,7-4[8:1],6,2-6[8:1],3,8-4b[8:1],1,2-5b[8:1],1,7-3b[8:1],8,1b,,{16}E5,E6,E7,E8,
{8}2-5b[8:1],2,1-6[8:1],1,3-7b[8:1],3,4-8[8:1],4,5-1b[8:1],5,6-2[8:1],6,8-3b[8:1],8,7-4[8:1],7,
1b,1,24,35,8b,8,75,64,
1b,46,8b,35,2b,84,7b,15,
2b/6b,,35,4,35,,35,,{16}2,4,2,4,3,5,4,6,5,7,5,7,4,6,3,5,
1b,,,,37,,5,,46,,,,46,,,,7,5,6,4,5,3,4,2,1,3,8,4,7,5,6,4,
7,6,5,4,8,7,6,5,4-1[8:1]/8b-5[8:1],,,,,,,,2,3,4,5,1,2,3,4,5-8[8:1]/1b-4[8:1],,,,,,,,
2,6,3,7,4,8,5,1,4b>1[8:1]/8b<5[8:1],,,,E4/E8/A3/B4/B8/A7,,,,
2,6,3,7,4,8,3,7,2b-5[8:1],,,,2b/1b<6b[8:1],,,,
1b/E4f/B4/B3,,,,2,5,3,4,2,,,,2,,,,2,1,2,1,4,5,3,6,2,3,4,5,8>3[8:1],7,6,5,
4/E1f/A8/A1,,,,7,4,6,5,7,,,,7,,,,7,8,6,1,5,4,5,4,6,7,8,1,5,4,3,2,
15,8,7,6,1q5[8:1]/5q1[8:1],4,3,2,1/B5f/E6/D6,,,,,,,,
48,1,2,3,8p4[8:1]/4p8[8:1],5,6,7,8/B4f/E4/D4,,,,,,,,
1,5,2,4,3,5,2,6,1xb>4[8:1]/7xb-4[8:1],,,,1b/7b,,,,
2b,8,3,8,2b,8,4,8,2b,8,5,8,2b,8,6,8,
1xb,,1xb,,6,5,6,5,4bx/7,,4b/7,,3,5,3,5,2bx/6,,2b/6,,7,1,7,1,8b-3[8:1],,{24}2,3,4,5h[4:1]/E1f,,,,,,
{16}8b,,8b,,2,1,2,1,3/8b,,3/8b,,6,4,6,4,3/7b,,3/7b,,2,8,2,8,
1b>4[8:1]b,,{32},,,,8-4b[8:1]*pp3[4:3],7,6,5,{8},
{4}8<4-7[4:2],,,,{16}4,6,8,7,1,8,2,1,{32}3,4,5,6,7,8,1,2,3h[4:1]/E5,E6,E7,E8,E1,E2,E3,E4,
{16}D5f/A5/A4,,1,,1,2,3,4,1-6[8:1]/5,,1,,2-5b[8:1],,2,,
,,8,,8,7,6,5,8>3[8:1]/4,,8,,E5,E6,E7,E8,
E1h[8:1],,4h,,{12}3h/5h,6h,4h,{6}3b/7b,2b/5b,1b/8b,
{4}2b>5[8:1]/7b,E5f/B5/B4,7b<4[8:1]/2b,E1f/B8/B1,
{8}2,2,21,28,2/7-4[8:1],{16}8-3[8:1],1,7,,8,,
{8}7,7,78,71,7/2>6[4:1]b,18,27,,
8b,8,1b,1,{12}7b,7,7,{24}2b,,6,5,6,,
4b/7,,4,,4,,8b,,3,4,3,,5b/2,,5,,5,,1b/6,,1,,1,,
{16}7b/8b,,,,15,26,37,48,15,,{32}15,48,37,26,1-5[8:1]/5,8,7,6,5,4,3,2,
{1}8b>7[4:7]*<1[4:7]/1,,
