&title=運命共同体!
&artist=音莉飴/TVアニメ「女神のカフェテラス」OPテーマ
&first=0.52
&des=Ragna
&wholebpm=130
&demo_seek=46.5
&demo_len=14
&des_5=Ragna
&lv_5=12+
&inote_5=(130){4}
,,4xw8[8:1],C,{8}
6-4[8:1],B3,6-8[8:1],B1,6-4[8:1],B3,6-8[8:1],B1,
6-4[8:1],B3,6pp1[16:5],B1,,,,,
3-5[8:1],B6,3-1[8:1],B8,3-5[8:1],B6,3-1[8:1],B8,
3-5[8:1],B6,3qq8[16:5],B8,,,,7bx,
7^1[8:1],B2,7^5[8:1],B4,7^1[8:1],B2,7^5[8:1],B4,
7^1[8:1],B2,7p4[32:9],B4,,,,,
2^8[8:1],B7,2q5[32:9],B5,,,7xp4[32:9],,
,,2xh[8:3],,,8,7x/3x,{16}4x,5x,{8}
3h[8:7],,4,,5,,6,6-3[8:1],
,2h[8:3],,,{16}4,3,{8}4,2,5,
4h[8:5],,6,,7,7-4[8:1],,2-6[8:1],
,7h[8:3],,,{16}5,6,{8}5,7,4,
5V71[32:7],,3,4,4h[4:1],,8,,
2q7[32:7],,7,8,8h[4:1],,1,,
7<3[3:1],,4>8[3:1],,1<5[3:1],,6^3[4:1],,
2h[2:1],,,,4h[4:1],,3x,{16}5x,4x,{8}
6h[2:1],,B8,,2h[2:1],B8,B8,,
5h[2:1],,B8,,3h[2:1],B8,B8,,
6-1[8:1],,2-5[8:1],,7-2[8:1],,3-6[8:1],,
8-3[8:1],,5p2[16:5],,,,E8/B7,,
7h[4:1],,5h[4:1],,4h[4:1],,2,1,
8,7z3[32:7],,2,2h[4:1],,4-8[8:1],,
B1,,{16}3,6,{8}4,5,5h[4:1],,4qq4[4:1],
,4^7[16:3]*p7[16:3],5,,,,E7/E3/B2/B7/B3/B6,,
4-7[8:1]b*-1[8:1],,4b,,26,3,45,6,
7-4[8:1]/5,8,3qq3[32:7],2,6h[4:1],,,{16}5,4,{8}
5-8[8:1]*-2[8:1]b,,5b,,73,6,45,3,
2-5[8:1]/6,1,7-3[8:1],8,2v8[8:1]*v5[8:1]b,,Cf,,
4xV28[4:1],,8V64[4:1],,4,,8,{16}7,3,{8}
6h[8:3],5,4qq4[32:7],3,5,,,{16}6,5,{8}
7-4[8:1],8-3[8:1],7,8,5-1[8:1],6,7,8,{32}
1bx,2x,3x,4x,5x,6x,7x,8x,1x,2x,3x,4x,5x,6x,7x,8x,
1x,2x,3x,4x,5x,6x,7x,8x,{8}1x/Cf,,
8^3[8:1]b*^5[8:1],,8b,,26,7,18,2,
3^8[8:1]/7,4,6qq7[32:7],5,2h[4:1],,,{16}1,8,{8}
1^4[8:1]*^6[8:1]b,,1b,,73,2,18,7,
65,{16}3,4,{8}2-6[8:1],1,7v1[8:1]*v4[8:1]b,,Cf,,
5x<1[4:1],,1>5[4:1],,5,,1,{16}2,6,{8}
3h[8:3],4,5pp4[32:7],6,4,,{16},2,2,5,{8}
1^4[8:1],8^5[8:1],1,8,4xw8[8:1],,C,,
5-7[8:1],B2,5-3[8:1],B8,5-7[8:1],B2,5-3[8:1],B8,
5-7[8:1],B2,5q8[32:9],B8,,,,,
4-2[8:1],B7,4-6[8:1],B1,4-2[8:1],B7,4-6[8:1],B1,
4-2[8:1],B7,4p1[32:9],B1,,,,8bx,
8^6[8:1],B5,8^2[8:1],B3,8^6[8:1],B5,8^2[8:1],B3,
8^6[8:1],B5,8qq3[16:5],B3,,,,,
1^3[8:1],B4,1pp6[16:5],B6,,,8xqq3[16:5],,
,,1xh[8:3],,,8,7x/3x,{16}4x/5x,4x/5x,{1}
,
E
