&title=Pray
&artist=千菅春香
&first=0.56
&des=御坂银
&lv_4=11
&lv_5=13+
&inote_4=(80)
{16}
3h[8:1],,4,2,,,,,,,,,2,4,3h[8:1],,4h[8:1],,3,2,,,,,,,,,,,,,
{16}
2h[8:1],,4,1,,,,,,,,,1,4,2h[8:1],,4h[8:1],,3,1,,,,,,,,,,,,,
{16}
3/6,,5,4,5,,2,2h[8:1],,7,7h[16:5],,,,,3,3,,4,3,,1s5[16:5],2,,,,,,,,,,
{16}
3/6,,4,5,4,,6,7h[8:1],,3,3h[16:4],,,,4,5,6,,4,3,,4V61[16:5],4,,,,,,,,,,
{16}
2/7,,1,1,8,,3,2h[8:1],,7,7h[16:5],,,,,3,3,,4,3,,1-6[16:3],2v5[16:2],,,,,,,,6,3,
{16}
2/7,,8,1,8,,8,7h[8:1],,2,2h[16:3],,,4,4,5,6,,5,6,,6qq5[4:1],7V16[16:3],,,,,,,,,,
{16}
4/5,,,,,,2b/7b,,,,5,5,4/6,3,3,,3/4h[4:1],,,3,2,,,4,5/6,6,,
{32}
3,5,
{16}
4,6,6,,
{4}
3h[8:1]/5h[8:1],6h[8:1]/4h[8:1],2h[8:1]/8h[8:1],7h[8:1]/1h[8:1],
{8}
6/8,17,28,31,
{16}
2b,2b,,3/6,3/6,3/6,18,,
{4}
2bpp4[8:1]/7,7-2[8:1],
{16}
3pp5[8:1],,,8,8,,7,,
{8}
8h[4:2],1b,2b,2b,3b,4h[4:1],
{16}
7,7,6,7h[4:1],,4,2,4h[4:1],,6,6,6h[4:1],,3,4,3,2/5,,,6,7/4,,2,3/8,,1-5[16:1],2,3,,,,3/6,3/6,2/7,1/8,,2bpp4[32:3]/7-2[16:1],,,,,,8,8h[16:3],,,4,,2/7,,
{16}
1/8,1/8,1/8,,3,3h[16:1],,5,6-2[16:1],7h[16:5],,,,,,
{16}
6,8,6h[4:1],,2,8,2h[4:1],,8,7,6h[8:1],,1,2/6,3h[16:3]/5h[16:3],,,,4,2/6,,5,3/7,
{16}
,6,4w8[4:1],3,,,,,,,,,
{16}
3/6,,4,4,3/6,,5,5,4,4,5,5,3/6,,5,,
{12}
2h[12:1],3h[12:1],4h[12:1],5h[12:1],6h[12:1],7h[12:1],
{16}
8b-4[8:1],,,,,,2h[8:1],,8-4[8:1],,,,2h[16:1],,,,2h[16:3]/8-4[8:1],,,,,,2h[16:2],,8V64[16:3],,,,2h[16:1],,,,
{16}
1>4[8:1],,,,,,7h[8:1],,1>4[8:1],,,,7h[16:1],,,,7h[16:3]/1q5[8:1],,,,,,7h[16:2],,1V35[16:3],,,,7h[16:1],,,,
{16}
8-4[8:1],,,2,,,2,,2/8-4[8:1],,,,2,2,,,
{8}
12,23,34,45,56,67,7b/8b,,
(160)
{1}
8-5[4:6]*z4[4:6],,3V51[4:6]/7-1[4:2],,3p3[4:6]`7p7[4:6],,1-5[4:5]/6<1[4:5],,
{1}
1>1[4:6],,1>5[4:3],1q5[4:3],
{2}
3h[2:1],4<6[4:1],2>4[4:1],8>2[4:1],6<3[4:3],,4h[2:1],5h[2:1],
{4}
1>5[4:6],8,7,7,6,6,7,7,8<4[4:6],1,2,2,3,3,2,2,
{4}
1,,,,4,,5,,1,8,7,7,6,,,,2h[4:1]/4h[8:3],,7h[4:1]/5h[8:3],,8,,6,,
{4}
5,,4,5,3,,6,,1V35[8:5],,,
{8}
8,8,,,,,,,3/6,,
{4}
1,1,3,5,
{8}
7h[8:3],4,3,2,,,1/8,,
{2}
2-5[4:1],7-4[4:1],3qq6[4:2],7,
{4}
8<5[4:1],3,1>4[4:1],6,
{8}
6b,5b/7b,,2/5,2/5,2/5,1<1[4:2]/7,,
{8}
6b,,,,7-4[8:1],7,2-5[8:1],2,8-4[8:1],,,3,2/5,,1/7,,8h[4:4],,4b,4,3b,3,2b,,
{8}
1b,,,2b/6,,1/8b,2,3h[4:1],,4,5,6h[4:1],,5,4,2h[4:1],,5,6,8h[8:1],1,,,
{8}
2-6[8:1],8,,7-3[8:1],1,,1,2/8,3h[8:3]/7h[8:3],,,,7/4,7/4,7/4,8>8[4:2]/2,,
{8}
3b,,,,3,,1-4[8:1]*-6[8:1],1,,,,,2,3,4/5,6,7<4[8:1],,1-5[8:1],1,8-4[8:1],8,2>5[8:1],2,,,3/6,,1/8,
{8}
2,2,2v5[8:1],,7,7,7v4[8:1],,3,3,3>8[8:1],,5,5,5<8[8:1],,,,4,3/4,,5,5/6,
{8}
1b,7,1b/6,5,1b-5[8:1],,,,1bw5[8:1],,,,
{2}
3,6,8,,
(155)
{4}
2/6,,5/6,,,,,,,,,,
(110)
{4}
2>5[4:1],,7<4[4:1],,1w5[4:2],,,,,,
{32}
,,,,,,,
(100)
{4}
6>4[4:1],,
(90)
2>4[4:1],,
(100)
{16}
6,5,6,5,6,
{4}
,,,,,,,E
&inote_5=(80)
{16}
3h[8:1],,4,2,,,,,,,,,2,4,3h[8:1],,4h[8:1],,3,2,,,,,,,,,,,,,
{16}
2h[8:1],,4,1,,,,,,,,,1,4,2h[8:1],,4h[8:1],,3,1,,,,,,,,,,,,,
{16}
3,5,4,6h[32:1],6,4h[32:1],4h[32:1],4,5,
{32}
,3h[32:1],,,,,
{24}
5h[12:1],,,3,,3,
{16}
5h[16:1],4,,,6h[32:1],6,2h[32:1],2,,
{32}
,5h[32:1],
{24}
,,4h[24:1],
{16}
6,5,4h[32:1],4/7,
{16}
6,4,5,3h[32:1],2,5h[32:1],5h[32:1],6,3,
{32}
,6h[32:1],,,,,
{24}
4h[12:1],,,6,,6,
{16}
4h[16:1],5,,,3h[32:1],4,5h[32:1],7,,
{32}
,4h[32:1],
{24}
,,5h[24:1],
{16}
3,4,5h[32:1],6/2,
{16}
3,5,4,
{32}
6,5,6,,4,5,4,5,4,,5,,
{32}
,3,4,,,,
{24}
5,,5,3,,3,
{16}
5,45,,,
{32}
6,4,6,,2,4,2,,,,
{32}
,5,
{24}
4,,4,
{16}
6,5,
{32}
3,4,2/5,,
{16}
6,4,5,
{32}
3,4,2,,5,4,6,4,5,,4,,
{32}
,6,6,,,,
{24}
4,,5,5,,6,
{16}
4,53,,,
{32}
3,3,5,,7,7,5,,,,
{32}
,4,
{24}
5,,5,
{16}
3,4,
{32}
5,4,6/3,,
{16}
,,,,,,
{16}
1b/8b,,2-6[16:1],6,4,7,2>5[16:1],5,5,,2/7>2[16:1],,,3,4V25[8:1]/7,5,6,7,8-4[16:1]/4,8,,
{32}
1,7,
{16}
8,6,,,
{16}
1>3[16:1],,7,7,1>5[8:1],7,,7,1>1[16:4],8,8,8,1,8,,,
{8}
5q1[8:1],1<5[8:1],5,2,
{16}
3b,2b/4b,,
{16}
5/6,4>4[4:1]/6,3/6,2h[8:1]/6,,
{16}
4b,,,,1,1,5,3,8,8,4,6/3,2/7,1,2-5[16:1]/7,8,
{16}
1-4[16:1]/3,,2b-6[16:1]/7,7,1b-5[16:1],5,2b/5,,1b,,2/7,,5b,6b/3,4/7b,5<1[8:1],
{16}
,3,4,5v2[32:3],,3,4,5<2[8:1],,3,4,5,3,4,4,45,
{16}
7p3[32:3]/8,,2,1,7,8,1,
{32}
2,2,
{16}
4,4,3,
{16}
1/2,8<8[4:1]/2,7/2,6h[8:1]/2,1,
{16}
8bV62[16:3],,,,,,5,5,6v1[32:3],3,5,4,6,,2/7pp5[4:1]*pp5[4:1],3,
{16}
4,,5v3[8:1]*v3[8:1],4,,2,2,2,,,3,5,6/8,1,2/5,3V17[8:1]/6,
{16}
,5,4,3V16[8:1],,5,4,3V15[8:1]*v5[8:1],,5,4,3,,,,3/7,5,,2/6,4v1[32:3]*v7[32:3],,5,3,4,,,
{16}
2,6,1/7-5[16:1],2,3,4,7-1[16:1],2,1,4,7-4[16:1],2,3,4,7-3[16:1],2,3,2,7,,,1,
{12}
2h[24:1]/8h[24:1],3h[24:1]/7h[24:1],4h[24:1]/6h[24:1],3h[24:1]/5h[24:1],2h[24:1]/6h[24:1],1h[24:1]/7h[24:1],
{16}
8b,,1-5[16:1],8,2,7,1,,1-5[16:1],,2,8,1,,3/7,,
{16}
5,,4-8[16:1],5,3,6,4,,4-8[16:1],,3,5,
{32}
4/8,7,6,5,1,2,3,4,
{16}
5,,4-8[16:1],3,5,2,4,,4-8[16:1],,3/5,3/5,4,,2/6,,
{8}
1>5[16:1]`5<1[16:1],1p5[16:1]`5p1[16:1],,,
{16}
2/7,,1-5[16:1],8,2/7,8,1/7,,3/6,,5-1[16:1],4,3/6,4,3/5,,8-4[16:1],,17,17,8,,2/6,,
{8}
3<6[16:1],6-3[16:1],7,7,7-4[16:1]*-4[16:1],
(160)
{4}
8q4[8:1]*q4[8:1],7b/8b,
(640)
{4}
,,,,
(160)
{4}
1>5[1:1],6,7,8,,,,,1>6[4:3],6,7,8,,,,,1>6[2:1],7,6v1[8:3],7,,,8,,
{4}
1>7[2:1],8,7p1[4:2],8,,,6,6,7-1[4:1],1-5[4:1],5-3[4:1],3,,,,,
{8}
5-1[4:1],,2v4[4:1],,,,8,8,7q1[4:2],,,,,,,,
{4}
3,6,4h[4:2],5,6h[4:2],3,2h[4:2],7,8h[16:11],3,
{16}
2,,,1h[16:3],,,2h[8:1],,
{4}
3h[4:2],5,6h[4:2],2,8>3[4:2],7,6,5,4<7[4:2],1,2,3,
{1}
4z8[8:13]/8-5[4:2],5-8[4:2],
{1}
4h[1:1],
{2}
5h[2:1],4h[2:1],
{4}
6,1,2,2,3,5,6,7,
{8}
8h[4:1],5,4,3,2h[4:1],5,6,7,1,,,,3,,,,
{4}
3h[4:1],4h[4:1],5h[4:1],7h[4:1],
{8}
4-6[4:1],3,2,,3-5[4:1],2,1,,
{8}
2h[2:1],,,,6,,1/8,1/8,,,7h[2:1],,3,,2,,
{4}
5h[4:1],3h[4:1],1h[4:1],7h[4:1],
{8}
6,5,4,3,,5,4,,
{4}
3h[4:1]/5,4,6h[4:1]/4,5,2h[4:1]/8,1,7h[4:1]/1,
{8}
8,1,2/7,,3/5,4,8,21,38,47,
{8}
5b/6b,2b/1b,,54,52,58,5h[4:1]/6<6[2:1],,
{8}
6b,,,,8,8,7/5,6,1,1,2/4,35,4/6,7,4/5,3,
{8}
1-5[8:1]/2,,1b/2-6[8:1],3,1-4[8:1]/2b-5[8:1],7,1bV75[16:3]/2bV86[16:3],,
{8}
1b/2b,,,3b/5b<1[4:1],,5b/1,3,5V71[4:1],,15,3,5V31[4:1],,15,7,5>1[4:1],,15,7,5,
{8}
4/8,4/8,5,2/6,
{8}
3p5[4:1],,3,6q4[4:1],,6/2,2,2,3/7,3/6,3/5,3/4,3/2,3/8,3h[4:1]/6>6[4:2],,
{8}
6b,,,,2-6[8:1],,28,8,7,5,8w4[8:1],2,8,,1<4[4:1]*<4[4:1],7,1,,8,8-5[4:1]*-5[4:1],,5q4[8:3]*q4[8:3],4,3h[8:3],,,,,2/6,
{8}
7V53[4:1],8,1/7,,1V75[4:1],2,1b/3,,4b-2[8:1]*-6[8:1],35,4,,3>1[8:1]/7>1[8:1],4/6,3b-7[8:1]/7<4[8:1],,7b/3,,8,
{8}
8-3[8:1],,8,4-7[8:1],1b-5[8:1],4,1bw5[8:1],8,1b,,3-5[8:1]/8-5[8:1],,3b/8b,,1/2,,
{2}
4,6,8,,
(155)
{4}
2/6,,5/6,,,,,,,,,,
(110)
{4}
2>5[4:1],,7<4[4:1],,1w5[4:2],,,,,,
{32}
,,,,,,,
(100)
{4}
6>4[4:1],,
(90)
2>4[4:1],,
(100)
{16}
6q3[32:35],7,8,1,
{4}
2<7[32:43],,,,,,,E
