&title=BlackJack
&artist=ゆちゃP
&first=-0.15
&des_1=ブラックジャック
&des_2=ブラックジャック
&des_3=ブラックジャック
&des_4=ブラックジャック
&des_5=ブラックジャック
&lv_5=13+
&des_6=ブラックジャック
&des_7=ブラックジャック
&des=ブラックジャック
&inote_5=(228){4},,,,2/8xv5[4:3]*>2v3<5[4:3],
{8},,,,,,,,8/6x,
,,3x/1,
,,{4}4/6x>4-1[2:1],{8},,,,,,,,1/3x,
,,6x/8,
,,{4}3/5x>3v2-8[4:3],{8},,,,,,,,8/6x,
,,3x/1,
{24},,,,,,{12}6/4,,6,{4}5,{12}5/3,,3,
{4}4,{12}7/5,,6,{4}5h[2:1],{48}A4,D4,A3,D3,A2,D2,A1,D1,A8,D8,A7,D7,
{4}A6,6x/5x,4,6/5,
{6}7,{12}5,6,,4,{6}7,{12}5,6,,4,
{4}8,3/7h[4:1],4,5/3,
{6}6,{12}6,5,,3,{6}4,{12}6,5-1[8:1],,,{4}3,
2x/8x,6,{12}7/1,,3x,
,,6,5,,3,{6}4,{12}7,5>1[4:1],,,{4}6,
7h[4:1],{6}1,{12}1,8h[4:1],,,{6}2,
{12}2,6h[4:1],,,{4}4,8<5[8:1]/3>8[8:1],
,4x/3x,5,4/3,
{6}2,{12}4,3,,5,{6}2,{12}4,3,,5,
{4}1,4/2h[4:1],5,4/6,
{6}3,{12}3,4,,6,{6}5,{12}3,4-8[8:1],,,{4}6,
7x/1x,3,{12}2/8,,7,
{6}5,{12}3,4,,6,{6}5,{12}2,4<8[4:1],,,{4}3,
2xh[4:1],1,{12}3xh[6:1],,4,
{6}2/5,{12},7xh[4:1],,,{4}8,{12}6xh[6:1],,5,
{4}4/7,3h[4:1],4,6h[4:1],
5,8/4,1-5[8:1],E4/A3/D4,
2,2h[4:1],4,7h[4:1],
5,8/4,1-5[8:1],A3/B3/D3,
2,7h[4:1],8,2h[4:1],
1,8/4,1-5b[8:1],B4/A4/D4,
2,{12}7,,6,{6}5,{12}3,4,,6,
{4}5<3[2:1],4bxh[2:1],,,5,
{12}4/6,,7,{4}5,{12}3/5,,2,
{4}4,{12}7xh[6:1],,6xh[6:1],,5xh[6:1],,4xh[6:1],,3xh[6:1],
,2xh[6:1],,8,,3,{6}4,{12}2,2,,6,
{6}5,{12}7,7,,,{4}1-5[8:1],3b,
4/6,{12}5/3,,2,{4}4,{12}6/4,,7,
{4}5,{12}3/5,,3,{6}4,{12}6,5,,,{4}8/3,
{12}2>5[8:1],,1,{4}2,{12}7-3[8:1],,8,
{4}7,{12}1x,2,3,6x,7,8,2x,3,4,
5x,6,7,8b,,,{4}1>4[4:1],7h[8:3],
{8},5x,{24},,,,{12}2,{4}1,3V15[8:3],
5,7,6>3[4:1],2h[8:3],
{8},1x,{24},,,,{12}7,{4}8,6V84[8:3],
4,2,3<1[12:5],7,
{8},6xh[24:7],{24},,,,{12}3,{4}7,4,
6/2,7h[4:1]/5h[4:1],{8},4h[4:1]/3h[4:1],,,{4}2h/8h,
2h[4:1]/4h[4:1],{8},5h[4:1]/6h[4:1],,,{4}1h/7h,
6/2,7>2[4:1],3h[8:3],
{8},4x,{24},,,,{12}6,{4}5,7V51[8:3],
4,2,3<6[4:1],7h[8:3],
{8},8x,{24},,,,{12}3,{4}4,1>5[4:1],
6,7h[4:1],{8}4,6/3h[4:1],,5,
{4}2/6,7/8,5,4/2,
7/5>7[2:1],5b/6h[4:3],{12},,,,,,,,,7x/8,
,6x/5,,4x/2,,1bx/7x,,6bx/4x,
,1bx/3x,,2x/7bx<4[6:1],,4x-8[6:1],{4}7x,{12}1V35[6:1],,5x-1[6:1],
{4}1x,7<4[8:1],7x/8>3[8:1],8x/5-1[8:1],
4x/5x,3p6[4:1],6<3[4:1],5-1[8:1],
5,{12}8x/4,,7,{6}5xh[6:1],{12}6,4x>8[4:1],,,{4}7,
{12}5<8[6:1],,1,{4}5,{12}3>8[6:1],,7,
{4}3,6<1[4:1],1>4[4:1],4<7[4:1],
7qq3[2:1],1,1,{12}2,,2,
{6}1,{12}7,8,,,{4}2/1-5b[8:1],B4/A4/D4,
3x/7x,{12}1/2b>5[6:1],,5x-1[6:1],{4}2x,{12}8V64[6:1],,4x-8[6:1],
{4}8x,2>5[8:1],2x/1<6[8:1],1x/4xh[4:1],
{6}5,{12}5,2>5[8:1],,,{4}2x/7-3[8:1],7x/1<6[8:1],
5/1xpp6[2:1],5x,6,7x>3[4:1],
3,{12}4>1[6:1],,8,{4}4,{12}6<1[6:1],,2,
{4}6,4V28[4:1],8V64[4:1],4>8[4:1],
,A7h[4:5]/E7h[8:13]/E8h[1:2],{8},,,,,,,,A1/B1f,
,,B5f/A5,
,,{4}A2h[4:5]/E3h[8:13]/E2h[1:2],{8},,,,,,,,A8/B8f,
,,B4f/A4,
,,{4}A8h[4:5]/E8h[8:13]/E1h[1:2],{8},,,,,,,,A2/B2f,
,,B6f/A6,
{24},,,,,,{12}2,,2,{4}4h[4:1],{12}3,,3,
{4}5h[4:1],{12}4,,4,{4}6h[2:1],{48}A7,D8,A8,D1,A1,D2,A2,D3,A3,D4,A4,D5,
{4}A5,5bx/7bqq3[2:1],3,{12}1,,2,
{4}2,4/2pp6[2:1],6,{12}8,,7,
{4}7,7-3-6-4[4:3],3,{12}1,,2,
{4}2,2-6-3-5[4:3],6,{12}8,,7,
{4}7,6V48[2:1],4,{12}3,,2,
{4}2,3V51[2:1],5,{12}6,,7,
{4}7,{12}6xh[6:1],,5,{6}7,{12}2,4xh[6:1],,3,
{6}5,{12}2x,1xh[6:1],,3,{6}8,{12}7x,8xh[6:1],,6,
{4}1,2/6<2[2:1],3,{12}4,,5,
{4}5,8/4>8[2:1],7,{12}6,,5,
{4}5,4/6h[4:1],{8}3,8/2h[4:1],,6,
{4}3/5,6/4h[4:1],{8}5,3/7h[4:1],,2,
{4}1>8[4:3]/8<1[4:3],D1f/A8/A1,{12},,,,,,,,,8xh,
7,6,3xh,2,1,7xh,6,5,
4xh,3,2,1/8x,7,6,4x/5-1-5b[4:5],3,2,1bx,,,,,,,,,,,,,,,,,,{4}2,
8<5[4:1],2h[8:3],
{8},E4/B4,{24},,,,{12}7x,{4}8,{12}6xV84[8:3],,5,
{4}6x,3,3<6[4:1],7h[8:3],
{8},E1/B8,{24},,,,{12}2x,{4}1,{12}3xV15[8:3],,4,
{4}3x,7,6<1[4:1],2,
{8},B3/E4,{12}B5/E5,,2x,{4}6,5,
3/7,2h[4:1]/4h[4:1],{8},5h[4:1]/6h[4:1],,,{4}7h/1h,
7h[4:1]/5h[4:1],{8},4h[4:1]/3h[4:1],,,{4}8h/2h,
3/7,2>5[4:1],6h[4:1],
{8},E2/A2,{12}A8/E8,,4x,{6}5,{12}2x,8V62[8:3],,1,
{4}8x,4,3<6[4:1],8h[4:1],
{8},E1/B8,{12}E3/B2,,5x,{6}4,{12}7x,1>5[4:1],,,{4}6x,
7h[4:1],{8}5,6/4h[4:1],,5,
{4}2/6h[4:1],3,5,5/7,
4/2,{12}5/1,,4,{6}3,{12}6,8,,3,
{6}5>7[4:3],{12}7,5b,,,,,,,,,,,,{4}5pp7p1[4:13]`5?qq3q1[4:13],
,,,,,,,,,,,,,,,5pp4b[2:3]/3qq4b[2:3],
{1},{4},,,{12}1/5,
,3,{4}4,{12}4/8,,6,
{4}5,4/3,8/1-5b[8:1],A4/B4/E4,
3x/7x,{12}2b/8bV64[6:1],,4v7[6:1],{4}8,{12}2>5[6:1],,5-1[6:1],
{4}2,7xp3[8:1],7/8xq4[8:1],8/6xh[4:1],
{6}5,{12}5x,7<4b[8:1],,7x,{6}2-6b[8:1],{12}2x,8>3b[8:1],,8x,
{6}4qq8b[2:1],{12}4x,6x,,,{4}7,5<1[4:1],
2,{12}4>1[6:1],,8,{4}4,{12}6<1[6:1],,2,
{4}6,4>3-1<8[4:1],8<7-5>4[4:1],4V28b[4:1],
8,{24}7x,6x,{3}5xh[12:5],{12},2,,3,
{4}4,{24}1x/7,2x,{3}3xh[12:5],{12},7,,6,
{6}5,{12},4>1[8:1],{24},,,,{8}7,7-3[8:1],,1,
{4}1-5[8:1],{24}6x,7x,{3}8xh[12:5],{12},4,,6,
{4}5,{24}4x/6,3x,{3}2xh[12:5],{12},5,,3,
{4}4V28[4:1],8V64[4:1],4>8<4[2:1],8,
4,{12}8,,6,{6}5h[6:1],{12}7,4h[6:1],,8,
{4}2h[4:1],{12}7x,6,5,3x,2,1,5x,6,7,
1x/8,2,3,{24}7x/4,6x,{6}5xh[6:1],3,{12}2,4,,5,
{32}3x,2x,{16}1xh[16:3],,,{4}7h[4:1],{6}4,{12}6,5,,4,
{4}5>2[8:1],8-4[8:1],{8}1,1q6[8:1],,7,
{4}8-4[8:1],{24}3x,2x,{3}1xh[12:5],{12},5,,2,
{4}4,8/7<4[8:1],7/1-5[8:1],1/8>3[8:1],
8/4-8b[8:1],4/5<8b[8:1],5/1>4b[8:1]*V35[8:1],1bV75[8:1]*<6b[8:1],
1b,A2h[4:5]/E3h[8:13]/A3h[1:2],{8},,,,,,,,E1f/A8,
,,B5f/A5,
,,{4}A7h[4:5]/E7h[8:13]/A6h[1:2],{8},,,,,,,,E1f/A1,
,,B4f/A4,
,,{4}A8h[4:5]/E1h[8:13]/A1h[1:2],{8},,,,,,,,E7f/A7/B7,
,,B3f/A3/D3,
{24},,,,,,{12}7,,7,{4}5h[4:1],{12}6,,6,
{4}4h[4:1],{12}5,,5,{4}3h[2:1],{48}A2,D2,A1,D1,A8,D8,A7,D7,A6,D6,A5,D5,
{4}A4,1xV35[2:1]/5xV71[2:1],,,,4bv1pp8[4:3]`4?v7qq8[4:3],
E
