&title=午前1時39分に死にたい feat. 初音ミク, ナースロボ_タイプT
&artist=Magens
&first=0.0175
&des=1:39
&lv_5=13
&inote_5=(165){8},,,,,,,,,,,,,
{16},
{8}56,,,4h[8:3]/7,,5,5,,34,,,5h[16:8]/2,,4,,6,56,,,4h[8:3]/7,,,,,25,,,3/4h[8:3],,1,2,3,34,,5,5/2-5[16:3],,,,,56,,4,4/7-4[16:3],,3,3,,5h[16:4]/2h[16:4],,,2/5<3[8:4],,,3,,4h[8:3],,,,4w8[8:1],,,,26,,5pp7[16:3],,1,2,3qq1[16:3],,8,7,6h[8:1],,7/5>3[8:1],,8,8,1h[8:1]/2h[8:1],,3h[8:1]/4h[8:1],,56,7,18,2,4q8[8:1]/3,,3qq1[8:1],,4<7[8:1],,2pp4[8:1],,8h[8:1],,8,6/4>2[8:1],,7,6,5,4h[8:1],,4,3/5<7[8:1],,2,3,4,5h[8:1],,5,4/6,,35,,6qq4[16:3]/4>2[16:3],46,,,,1,82,73,,8,7,6,5,1,8,7,6,2,1,8,7,3,2,1,8,4,3,2,1,5,4,3,2,6,5,4,3,7,6,5,4,8,7,6,5,7,6,5,4,6,5,4,3,5,4,3,2,4,3,2,1,3,2,1,8,2pp5[2:1],,,,5,7,1h[4:3],,4,,3,,2,,1,,2/1h[4:2],,3,,4-1[8:1],,1b,,2/8-6[8:1],,28,1-5[8:1],,1,8,,7/1-3[8:1],7,1,8-4[8:1],,8,3,2,5<8[8:1],1,3,5,4>1[8:1],8,6,4,5-8[8:1],8,5,2,5-8[8:1],8,5,,
{16}4,5,6,7,1,2,3,4,8w4[8:1],,,,8,,,,{8}2/6-8[8:1],,6,1-5[8:1],,1,8,,7-5[8:1],7,4-8[8:1],4,7-5[8:1],7,3-1[8:1],3,7-5[8:1],7,4-8[8:1],4,
{32}7,,,,7,6,
{16}5h[16:5],,,,,
{8}2-4[8:1],,82,1-5[8:1],,1,2,,2/8-6[8:1],2,8,1-5[8:1],,1,6,7,4>1[8:1],8,6,4,5<8[8:1],1,3,5,4-1[8:1],1,4,7,4-1[8:1],1,4,,
{16}5,4,3,2,8,7,6,5,1w5[8:1],,,,1,,,,{8}7/3-1[8:1],,3,8-4[8:1],,8,1,,2-4[8:1],2,5-1[8:1],5,2-4[8:1],2,6-8[8:1],6,2-4[8:1],2,5-1[8:1],5,2-4[8:1],,2/8,,
{16}6,5,6,5,6,5,6,5,6,5,6,5,6,5,6,5,7,5,7,5,7,5,7,5,8,5,8,5,8,5,8,5,1,5,1,5,1,5,1,5,1,5,1,5,1,5,1,5,8,5,7,4,6,3,5,2,5q1[8:1],,,,1,,,,3,4,3,4,3,4,3,4,3,4,3,4,3,4,3,4,2,4,2,4,2,4,2,4,1,4,1,4,2,4,2,4,3,4,3,4,3,4,3,4,3,4,3,4,3,4,3,4,2,5,3,6,4,7,5,8,5p8[8:1],,,,,,,,78,,78,,6,1,6,1,6,1,6,1,6,2,6,2,6,1,6,1,6,1,6,1,6,2,6,2,6,3,6,3,6,4,6,4,6,4,6,4,6,4,6,4,6,3,6,3,6,2,6,2,6,1,6,1,6,8,6,8,6,8,6,8,5,8,5,8,5,8,5,8,5,8,5,8,5,8,5,8,5,1,5,1,5,1,5,1,5,1,5,1,5,1,5,1,5,2,5,2,5,2,5,2,5,2,5,2,5,2,5,2,5h[8:1],,6h[8:1],,7h[8:1],,8h[8:1],,1h[8:1],,2h[8:1],,3h[8:1],,4,,4b>5[4:11],,,,
{4},,,,,,,,,,,,,
{8},,,,7,6,5,4,6,5,4,3,5,4,3,2,4,3,2,1,3,2,1,8,2,1,8,7,1,8,7,6,1,1,5,5,
