&title=UNKNOWN LEVELS
&artist=Yuta Imai
&first=0
&des=VegeCyanine
&lv_5=14
&des_5=VegeCyanine
&inote_5=
(165){4},,,,{1}E2h[1:1]/7-5v4-2-4<6-8[2:3],
{4},B1/B2,,,{1}E8h[1:1]/2-4v5-7-5>3-1b[4:5],
{4},B7/B8,{16},,,,,,1,8,
1s5[8:3],,,6-2[16:3],,,{8}6,{2}C,
{16}1/8z4[8:3],,,3-7[16:3],,,{8}3,C,{16},,,,5,4,
5-7-1-3-5[16:9],,,4,,,{8}4,4-6<8b[4:1],4,,,{1}Ch[4:3],
2-4<6-8[2:3],
{2}B7/E7/B6,B5/B4/E5,
{1}8-5>3b[2:3],
{2}B2/B3/E3,E1/B8/B1,
{4}8b/1b,{16}2,8,2,8,3,7,3,7,4,6,4,6,
{4}5b,{16}5,4,5,4,{4}6b/3b,{16}1,7,1,7,
1b,4,3,8b,5,6,2b,4,3,7b,5,6,4b,5,4,5-8>5b[2:1],
,,,,,,,,A2,D3,{8}A3,{16},,,,1/B5h[2:3]/B6h[8:13],
,,1,,,{8}1,{16}2,,,2,,,{8}2,
{16}3,,,3,,,{8}3,B4/E4/B3,E2/B2/B1,{16},,,,5/1b<8>1<8-6[8:1],
,,5,{8}1>2<1>2-4[8:1],5,{16}5/1<8>1<8-6[8:1],,,5,{8}1>2<1>2-4[8:1],5,
{16}5/1<8>1<8-6[8:1],,,5,{8}1>2<1>2-4[8:1],5,5/1,6,7,8,
{16}4/8b>1<8>1-3[8:1],,,4,{8}8<7>8<7-5[8:1],4,{16}4/8>1<8>1-3[8:1],,,4,{8}8<7>8<7-5[8:1],4,
{16}8/4h[16:1],,,4h[16:1],{48},,,,,,{24}3,2,1,{16}8-2-4[16:5],,,B5,,B7,,,{4}A4f,
{8}8b<7>8<7-5[8:1],4,{16}4/8>1<8>1-3[8:1],,,4,{8}8<7>8<7-5[8:1],4,
{16}4/8>1<8>1-3[8:1],,,4,{8}8<7>8<7-5[8:1],4,4/8,3,2,1,
{16}1b-4[16:1],,,5b-8[16:1],,,{8}3b-6[16:1],{16},7b-2[16:1],,,{4}1b-5[16:1],
{16}7b,,,7,,,{8}7h[2:1],{16}5bv2[8:1],,,5,{4}5,
{16}1,,,1h[32:9],{32},,,,,,,,6/E2,B2,B3,E4,{8}7/A4h[4:1],{4}8,
8h[32:15],{8}1pp4[2:1],1,{32}1/E8,B7,B6,E6,{8}A5h[8:1],{16},,,,6xh[16:3],
,,7xh[16:3],,,{8}8xh[2:1],E1,E2,E3,E4,
{16}5x/4xh[8:7],,,6h[16:1],,,{8}6,{16}7,,,7h[16:1],,,{8}7,
{16}8,8,8,8,{4}8bx/1bx>2<1>2-4[8:1],{16}5/1<8>1<8-6[8:1],,,5,{8}1>2<1>2-4[8:1],5,
{16}5/1<8>1<8-6[8:1],,,5,{8}1>2<1>2-4[8:1],5,{16}1b<8>1<8-6[8:1],5,{8}5,{16}1b,5,{8}5,
1bx/2bx,2bx/1bx,3bx/8bx,8bx/3bx,{16}4,7,4,7,5,6,5,6,
{1}5-1v7[2:1]*-1v3[2:1],
{4}C,8b,{16}3,8,8,8,3,8,8,8,
{4}3,{16}4/6h[8:1],,,4,{8}5/3h[8:1],5,{4}4/6h[8:1],
{16}4,5,{8}4,{16}5/4,,,6,6,1,1,1,6,1,1,1,
8-6>5[8:1],,,8,,,{8}1-3<4[8:1],{16},1,,,{4}C,
{16}8,8,,8,{4}3,{16}3,8,8,8,3,8,8,8,
{4}3,5/3h[8:1],{8}4/6h[8:1],4,{4}5/3h[8:1],
C,{12}3x/5xh[6:1],3x,3x,6x/4xh[6:1],6x,6x,5xh[12:1],{24},4x/6x,3x/7x,8x/2x,
{1}1x>1>5[0.3636##1.4545],
{4}5x<1[0.3636##0.7621],(160),(155)1xV35[0.3871##0.8138],(150),
(145)5xV71[0.4138##0.873],(140),(135)1x>5b[0.4444##0.9415],(130),
(125)5x<1b[0.48##1.0217],(120),(115)1xs5[0.5217##0.8182],(110),
B6,{16}6x,6x,,5x,{8}5x,{16}4x,4x,3x,3x,5x,5x,
3xh[16:3],6,6,6,2h[16:3],6,7,6,3h[16:3],6,6,6,4h[16:3],6,7,6,
3h[16:3],6,6,6,2h[16:3],6,7,6,3h[16:3],6,6,6,4h[16:3],6,7,6,
5x/4x,5x/4x,4x/5x,5x/4x,{4}6xh[8:1]/3xh[8:1],{16}5,{32}4,4,4,4,{16}4,5,4,4,4,
6xh[16:1],5xh[16:1],{8}6xh[16:1],{16}3xh[16:1],4xh[16:1],{8}3xh[16:1],{16}5/2xh[16:7],5,4,5,5,5,4,5,
{4}C,{16}5xh[16:3],3,2,3,6h[16:3],3,3,3,7h[16:3],3,2,3,
6h[16:3],3,3,3,5h[16:3],3,2,3,6h[16:3],3,3,3,5h[16:3],3,2,3,
4x/5x,4x/5x,5x/4x,4x/5x,{4}3xh[8:1]/6xh[8:1],{16}4,{32}5,5,5,5,{16}5,4,5,5,5,
3/6xh[8:1],3,4,3,3/6xh[8:1],3,4,3,{12}4/7xh[6:1],3,2,5/2xh[6:1],6,7,
{4}8b-5[0.5455##0.2609],(115)2h[8:1]/8-3[0.5217##0.25],(120)6h[8:1]/8-5[0.5##0.24],(125)2h[8:1]/8-3[0.48##0.2308],
(130)6h[8:1]/8-5[0.4615##0.2222],(135)2h[8:1]/8-3[0.4444##0.2143],(140)6h[8:1]/8-5[0.4286##0.2069],(145)2h[8:1]/8-3b[0.4138##0.2],
(150)6h[8:1]/8-5b[0.4##0.1936],(155)2h[8:1]/8-3b[0.3871##0.1875],(160)6h[8:1]/8-5b[0.375##0.1818],(165)2h[8:1]/8-3s7s3[4:3]*-3[8:1],
{1}8b,
{8}3/E6h[16:13]/B6h[16:13],{16}2,2,,,{8}1-5[8:1],,1h,,,7/E2h[4:3]/B2h[4:3],
{16}8,8,,,{8}7-5[8:1],,7h,,,4/A6h[4:3]/B6h[4:3],
{16}4,4,,,{8}3-5-2[8:1],3,3,,,5/A2h[4:3]/B2h[4:3],
{16}5,5,,,{8}6,6,{16}5,5,,6,{8}6,
3/B7,{16}3,3,{8}B8,4-6[8:1],B7,4,B8,4,
{16}3/B7,,,3,{8}B8,2,B7/1v4[8:1],1,{4}B8,
{8}6/B2,{16}6,6,{8}B1,5-3[8:1],5/B2,5,B1,5,
{16}6/B2,,,6,{8}B1,7,{16}B2/8-6[8:1],,,8,{4}B1,
{16}5bh[8:1]/4bh[8:1],,,6bh[8:1]/3bh[8:1],,,{8}7bh[8:3]/2bh[8:3],{16},,,,,,,,E3,
B2,,E1,{8}B8,{16}E7,B6,,E5,{8}B4,{16}C,C,C,C,
8bxh[8:1],,,7bxh[8:1]/1bxh[8:1],,,{8}6bxh[8:3]/2bxh[8:3],{16},,,,,,,,4,
4,4,4,{8}4,{16}5h,5h,5h,5h,{8}5h[8:1],{4}C,
{8}1q5[8:1],1,7-4[8:1],7,3-8[8:1],3,6q2[8:1],6,
4v1b[8:1],4,6v3b[8:1],6,2,2,7,7,
{24}1,2,3,4/5,6,7,2/8,3,4,5/6,7,8,{32}1/2,3,4,5,6,7,8,1,2,3,4,5,6,7,8,1,
{2}8v5[8:1]/2v5[8:1],1<8-4>3b[8:1]/7>8-4<5b[8:1],
{8}7x/1x,{16}8x,8x,{4}8bx<7>8<7-5[8:1],{8}8x/1x<8>1<8-4[8:1],1x,1x/2x>3>2>3-5b[8:1],2x,
{16}2x/1x>2<1>2-6b[16:1],,,8x,{8}1x/8x>1<8>1-4b[8:1],7x,8x/7<6<7<6-4[8:1],7x,{16}7x/8x<7>8<7-3[8:1],8x,,1x,
{4}8x/1x<8>1<8-4[8:1],{8}1x/2x>3>2>3-5b[8:1],2x,2x/1x>2<1>2-6b[8:1],1x,1x/8x,8x,
8/1,{16}2,7,{8}2,8b,{16}8b-4[8:1],1b,{8}8b,{4}8b,
B2h[16:1]/B3h[16:1]/B7h[16:1]/B6h[16:1],1bx>2<1>2-4b[8:1],{8}1x/8x>1<8>1-5b[8:1],8x,8x/7x<6<7<6-4[8:1],7x,
{16}7x/8x<7>8<7-3[16:1],,,1x,{8}8x/1x<8>1<8-5[8:1],2x,1x/2x,2x,{16}8x,1x,{24}8x,1x,8x,
{4}1bx-5[8:1],{8}1,7b-3[8:1],,7,{4}1b>6V42b[1:1],
{8}A1,B6,{16},B7,,,{8}B7,B8,{16},B7,,,{8}6,
6h[8:1],,6xh[8:1]/B6,,5xh[8:1]/4xh[8:1],,3xh[8:1]/B3,
,5xh[8:1]/4xh[8:1],,6xh[8:1]/B6,,4/5,5bh/4bh,{16}5x,4x,
5x<6>5<6-8b[8:1],,,1x,{8}5>4<5>4-2b[8:1],1x,1x-5b[8:1],1x,{4}1x,
{16}3/7h[16:1],3,,6/2h[16:1],{8}6,{16}3/7h[16:1],3,,6/2h[16:1],{8}6,{4}8bx`B8f,
{8}7x/1x,{16}8x,8x,{4}8bx<7>8<7-5[8:1],{8}8x/1x<8>1<8-4[8:1],1x,1x/2x>3>2>3-5b[8:1],2x,
{16}2x/1bx<7b[8:1],,,1bx>3b[8:1],,,{8}1bx-6b[8:1],{16},1bx-4b[16:1],,,{4}A1f,
{16}3x,3x,3x,3x,{8}3x,{16}6xh,6xh,6xh,6xh,{8}6xh,{16}4z8s4b[8:7],5h,4,5h,
{1}4,
{4}C,{16}3,8,8,8,3,8,8,8,3,3,{8}3,
{16}6,1,1,1,6,1,1,1,{8}6,6,{16}5/4,4/5,{48},,{12}3,
{16}3,8,8,8,3,8,8,8,3,8,8,8,4,6,4,6,
3h[8:3],,,B3,,,{8}6h[8:3],{16},B6,,,{4}Cfh[4:1],
{2}B7/B6/B2/B3,{16}3x/5h[8:1],3x,{8}3x,{16}4h[8:1]/6x<7<6<7-1[8:1],6x,{8}6x,
{4}6/4>3<4>3-1[8:1],4/6<7<6<7-1[8:1],6/4>3<4>3-1[8:1],{16}6/4,,,7,
7/8-4[16:1],,,5-7[16:1],,,{8}3-1[16:1],{16}A8,B8,C,B4,{24}A1,A2,A3,A4,A5,A6,
{1}A7fh[1:1],
E
