&title=Abstruse Dilemma
&artist=Ashrount vs. 打打だいず
&first=-0.28
&des=Zamykal
&lv_5=14
&inote_5=(216)
{1}
,1xv6-8-3[4:7],,6-8v5-3[4:7],,1v4-2[4:5]*v6-8[4:5],,8p4[4:7]b,Ch[1:1]f,
{12}
,,,E5,B5,B6,E7,,,E3,B3,B4,E5,,,E8,B8,B1,D4,D3,D2,D8,D7,D6,4,,,
6,5,6,4h[4:1],,,6,5,6,3h[4:1],,,6,5,6,2,4,2,7,5,7,3,,,3,4,3,5h[4:1],,,3,4,3,6h[4:1],,,3,4,3,7,5,7,2,4,2,6h[4:1],,,5,7,4,8h[4:1],,,3,4,2,5h[4:1],,,1>4[4:1],6,6,1<6[4:1],,,1w5[4:3]b,,,1b,,,,,,,,,,,,
2x,3x,4x,7x,6x,5x,1h[2:1],,,4x<7[8:1],,,4b,,,2,,3,8<5[8:1]/3,,,2/8,,1,1v4[8:1],,,1v6[8:1]/7,,,1>4[8:1]/3,,,1s5[8:3]b/7h[4:1],,,1,,,,,,8<5[6:1],,,4/8,3,2,1h[4:1],,,7,5,6,2,4,3,8,8,8,1-3[8:1]/7,,,1-7[8:1]/6,,,1-5[8:1]/4,,,1/6,,,8v5[8:1],,1,1/8v3[8:1],,,7/8<5[8:1]*>3[8:1],,,8,,,4,5,4,6,5,6,3,5,3,7,5,8h[4:1],E5,E4,E3,E7,E6,E5,B1/B8/E1,,,3,4,3,2x-8[8:1]/5x,,,2/4,,,6-8[8:1],,,4/6,,3,3-1[8:1],,,3/5-1[8:1],,,4/5>2[8:1],,,5/6,,,7-5[8:1],,,7/8,,,2-4[8:1],,1,2,,,8-4[300#16:3],,8,1-5[300#16:3],,1,7-5[300#16:3],,7,3,2,1,4/8-4[8:1],,,4b/8b,5,6,7-3[8:1],,,3b/7b,,1,1,,6,5/6,,2,2/4,,7,4/7,,2,2/5h[4:1],,,3,6,4,7h[4:1],,,E4,E3,E2,5h[4:1],,,8,8,8,4/8,1/5,2/6,3/7,4/8,1/5,
{1}
2bV86v8[4:13]/6bV42v4[4:13],,,,3>1v4[4:7]/7<5v8[4:7],,
{12}
,,,,,,7h[1:1],,,E2,E1,E8,E7,,,E2,E3,E4,E5,,,8-4[8:1]b,,,Cf,,,3,,,2,,2,5h[4:1],,,3,,3,6,,4h[4:1],,,7,3h[4:1],,6,6-8[8:1],,,4,,,3-1[8:1],,3,5,,,6,5,6,4>1[8:1],,5,,,5,5<8[8:1],,,4,,,5/6,,3,3/4,,,5/7,,2,2/4,,6,6/8,,3,1/3,,7,1/7,,2,2/8,,7,7,5,6,2,4,3,8,6,7,
{4}
1h[4:1],5w1[8:1]b,Cf,,4b/6bh[2:3],,,,A3/E3/E4,A5/B5,8v3[8:1]*v5[8:1],8b`Cf,
{12}
1-6[8:1]/7,,,1-4[8:1]/2,,8,1-5[8:1]/8,,,1/2,,,8>3[8:1],,4,8p4[8:1],,4,4<7[8:1]/8>3[8:1],,,,,,8,,8,5,7,4,6h[4:1],,,3,5,2,2<7[4:1],,,7<4[4:1],,,4>1[4:1],,,1,,,6h[4:1],,,2,5,1,4h[6:1],,2,5,3,6,4>1[8:1],,,4<7[8:1]/5,,,4/8w4[8:1],,,8,,,6,5,6,4/7,,,3,4,3,2<3[2:1]b/5,,,Cf,,,,,,8b,,,6,5,8,8v5[8:1],,,2/8v3[8:1],,7,7/8>3[8:1]*<5[8:1],,,8,,,4,,4,6,5,7,1-4[8:1]*-6[8:1],,,1,,,5,,5,
{16}
3,4,3,4,
{12}
2-6[8:1],,,8v3>1-4[2:1]b*v5<7-4[2:1]b,,,8b,,,,,,,,,7,,7-5[8:1],,,3,3,,2,2h[2:1],,8,8<5[8:1],,,8>3[8:1],,3,8,,,4-1[8:1]/8-5[8:1],,,4/8,,,7,5,6,2,2,4,3bh[4:1],,,8,8,4,7,7,3,6bh[4:1],,,1,4,3,8-4[8:1]b,5,6,8bqq5[4:7]*pp3[4:7]`Cf,,,,,,,,,,,,,,,,,,,,,,,,,,,
E5,B5,B6,E7,,,E2,B2,B3,E4,,,6,7,8h[12:7],E2,E1,E8,E7,E6,E5,3x,,3,5,,5,4,,4,6,,6,2,1,2,7,8,7,
{16}
3,6,3,6,4,5,4,5,
{12}
3h[2:3],,,E2,B2,B3,E4,,,E8,B7,B6,E6,,,D2,D3,D4,D5f,,,,,,
{16}
2bh[2:1],,,,,,5,6,7h[16:3],,,6h[16:3],,,5h[8:1],,
{12}
3,4,3,5,4,5,1b,,,1>4[8:1],,,7bh[2:1],,,
{16}
,,3,2,1h[16:3],,,3h[16:3],,,4h[4:1],,
{16}
6,7,8h[8:1],,
{12}
3,3,3,
{16}
5,6,7h[4:1],,2,3,4h[8:3],,8b<5[8:1],,,,,,3,2,1h[16:3],,,3h[16:3],,,5h[8:1],,
{12}
7,4,6,2,5,3,8b<5[8:1],,,,,,4bv1[8:1],,,
{16}
,,5,6,7h[16:3],,,5h[16:3],,,4h[8:1],,
{12}
2b,,2,6,5,7,3bh[2:1],,,1b>8[8:3],,,,,,
{16}
,,4,3,2h[8:1],,,1h[8:1]/3h[8:1],,,8h[8:1],,,5h[8:1]/7h[8:1],,,
{12}
6,4,5,3bh[4:1],,,6V82[4:1]b,,,2bV86[4:1]b,,,5,4,3,
{16}
2,,,3/5,,,4/6,,5/7b-4[8:1],,,,1,,,1b<6[8:1],,,5,,5b-3-1-7-5[2:1]b,,,,{4}
Cf,,
{12}
3b,,3h[3:1],,,7,7,5,6,2,4,3,8bh[2:1],,,,,,3,,2/4,,,6,5,,4/7,,,2,1,,7,8,,2h[12:7],E2,E3,E4,E5,E6,E7,E8f/D8/B8,,,,E3,B3,B4,,,A7,D7,A6,D6,A5,D5,A4,,,,,3,,4,,2/5h[1:1],,,,E2,E3,E4,,,E8,E7,E6,E5,E4,E3,E2,,,,,,6,,6,5/7,,,3,,3h[3:1],B7/E7,,,5,,5h[3:1],B1/B2,,,4,,4,8h[2:1],,,,,,Ch[1:1],,,,,,,,7,,6,,5-1[2:1],,,,,,1s5[4:1]b,,,,,,
2bh[4:1],,,,,,3h[4:1]/6,,,,,,4h[4:1]/7,,,,,,5h[2:1]/8,,6,,4,,2h[4:1],,,,,,1h[4:1]/3h[4:1],,,,,,4h[4:1]/8h[4:1],,,,,,5/7,,,4/6,,5,3,,,2/6,,,1/7,,,2/8,,7,5/7,,2,2/4
,,8,1/8,1,1,7,7,7,2x,3x,4xh[3:1],,,,,,6,,5,,
{16}
4,6,4,6,3,7,3,7,
{24}
2,8,2,8,2,8,
{4}
1b,1xw5[4:3],,,,,6b/A3/A4/D4,2b/E5/E6,8b/C,8v5[8:1]b,
{12}
2b/8b`Cf,,1,1>4[4:1],,,5,6,7,8v5[8:1],,1,1/8v3[8:1],,7,7/8,,1,1>4[8:1]*<6[8:1],,,1b,,,5,2,4,3h[4:1],,8,8-6[8:1],,,3b<5[8:1]/8b>2[8:1],,,3b/8bp4[8:1],,,2b-6[8:1]/8b-3[8:1],,,2b/8b,,,5bh[2:1]/7,,6,,4,,3bh[2:1],,4,,2,,1b,,,2,4,3,6,5,6,4,7,4,
{12}
8-4[8:1],,,3,,,2,,5/7,,1/8,,1/8>3[4:1],,,3<6[4:1],,,6<1[4:1],,,1,,,4,,,
{16}
3,5,3,5,
{12}
2/6,,2/6,,1/7,,8bz4[4:1]b,,,,,,,,,3,,3x,,,2-4[8:1],2,,6,6,,7-5[8:1],7,,2,2-5[8:1],,,2/7p3[8:1],,,1>4[8:1]/7,,,1/8,,,8,5,6,8-4[8:1],4,2,8b,,,1,5,3,1-5[8:1],5,7,1b,,,8,8,8,1,1,1,B7,B6,E6,B2,B3,E4,8h[4:1],,,D4,D3,D2,D6,D7,D8,4h[4:1],,,E6,E5,E4,E3,E2,E1,4,6,8,4-8[8:1],2,8,4b,,,5,3,1,5-1[8:1],7,1,5b,,,4,6,2,8,3,7,1h[4:1],,,,,,2h[4:1]/8h[4:1],,,,,,
{32}
3b,4,5,6,7,8,1,2,3,4,5,6,7,8,1,2,
{12}
3/5<8[8:1],,,4x,,,3bh[4:1],,,1,2,1,2h[4:1],,,6bh[4:1],,,8,7,8,7h[4:1],,,1b>4[6:1],,,5,6,7,8,,,8b,5,6,1b,4,3,7b,5,6,2bh[4:1],,,1,3,8,4h[4:1],,,7bh[4:1],,,8,6,1,5h[4:1],,,2b,,6,5/6,,3,3/4,,7,7b,5,6,2,4,3,8,1,8,2b,4,2,7,5,7,1,8,1,
{24}
7bx,6x,5x,,2,,8,7,6,,3,,1,8,7,,3,,5b,6,7,,2,,4b,5,6,,1,,
{32}
4b,5,6,7,8,1,2,3,
{4}
4/8xh[2:1],,,5b<3[4:15]b/8bz4[4:11],,,,,,,,,,,,,,,,
{32}
A4,B4,C,B8,A8,
