&title=Last Shot
&artist=templuv/347aidan 「VALORANT」
&first=0
&des=Tail_R
&lv_5=13+
&inote_5=(144)
{1},
{1},
{1}3h[1:1],
{1}2h[1:1],
{8}1,1h[1:1],,,,,,,
{8}8,8h[1:1],,,,,,,
{8}7,7h[1:1],,,,,,,
{8}6,6h[1:1],,,,,,,
{8}5,5h[2:1],,,4,4h[8:3],,,
{8}2xv3[8:1],,8xv1[8:1],,6xv7[8:1],,4xbv5[8:1],,
{8}2h[4:7],,,,4<3qq6[1:1],,,,
{1},
{2}8h[4:7],7V53v2V86-4[8:7],
{1},
{8}3h[2:1],,,,4,4h[2:1],,,
{8}2,2h[2:1],,,8,8h[2:1],,,
{16}6,,6,,4x/8x,,3,,2,4,2,,1/5,,7/8,,
{4}2b>6>2[8:3]/6,,E4,C,
{16}7b-4[8:1]/8b-4[8:1],,,,7/8,,,,3,4,3,,2-4[32:3]/1,,3,,
{8}8-6[32:3]/2,7,1-3[32:3]/8,2,7-5[32:3]*-3[8:1]/1,,7x,,
{16}2b-5[8:1]/1b-5[8:1],,,,2/1,,,,6,5,6,,7-5[32:3]/8,,6,,
{8}3V17[4:1]/7,,5,5,6-8[32:3]*-2[8:1],4/5,6x,,
{16}1b^4[8:1],,7/8,,6h[4:1],,,,3,4,3,,2-4[32:3]/1,,3,,
{8}6-8[32:3]/2,7,1-3[32:3]/6,2,5-7[32:3]*-1[8:1]/1,,5x,,
{16}3b-8b[8:1]/4b-8b[8:1],,,,3/4,,,,7,8,7,,6-1[32:3]/5,,7,,
{16}6/2-5[8:1],,,,2/1,,8,,7x,5,6,4,5,3,4,2,
{8}8hb[2:1],,,,2,3,4h[4:1],,
{8}6h[2:1],,,,1,1,2/8h[4:1],,
{8}3h[2:1],,,,7,6,5,4,
{8}2h[8:1]/1h[8:1],,7h[8:1]/8h[8:1],,5^2[8:1]/6p1[8:1],,,,
{8}8h[2:1],,,,1-5[8:1],1,6h[4:1],,
{8}4h[2:1],,,,6v8[8:1],6,2h[4:1],,
{8}7h[2:1],,,,1^6[8:1],2,3,4,
{8}5bV38V26[2:1]/6,,,,6x,,8,8,
{16}2-5[8:1]/1,,2h[8:3]/1,,,,,,E7/A6/B6,,,,8/1,,7/8,,
{16}6-1[8:1],5,6h[8:3],,,,,,A4/E4/D4,,,,3/4,,2/3,,
{8}2-6[8:1]/1,2h[8:3]/1,,,A5/E5/B5,,5/6,6/7,
{12}8,7,1,8,2,1,{8}3^6[8:1],,6,7,
{16}7-4[8:1]/8,,7h[8:3]/8,,,,,,E3/A3/B3,,,,1/2,,2/3,,
{16}3-8[8:1]/4,,4/3,,3h[4:1],,,,A5/E6/D6,,,,6/5,,7/6,,
{8}7-3[8:1]/8,7h[8:3]/8,,,A4/E5/B4,,4/3,3/2,
{8}2/1,3/8,4-8V24[2:1]/7,,7h[8:1],,6h[8:1],,
{8}5hb[4:7],,,,4V25-1-6-8[1:1],,,,
{1},
{2}1h[4:7],5pp7pp1pp3pp5[1:1],
{1},
{16}2/4,,2,,4/2h[4:1],,1,,7,5,6h[8:1],,3,4,2,,
{16}6/5,,6,,5/6h[4:1],,8,,2,4,3h[8:1],,6,5,7,,
{16}2/8,,2,,8/2h[4:1],,4,,6,5,7h[8:1],,2,4,3h[8:1],,
{32}6x,,,6x,,5x,,7x<3[4:1],,,,,,,,,E6,,,,,,,,C,,,,,,,,
{16}2b-5[8:1]/1b-5[8:1],,3,,2/1,,,,7,5,6,4,7-4[8:1],,6,,
{8}2^7[8:1]/7,3,5-1[32:3]/2,6,2-5[8:1]*-6[8:1]/5,3,2x,,
{16}7b-4[8:1]/8b-4[8:1],,6,,7/8,,,,2,4,3,5,2-5[32:3],,3,,
{8}6V82[16:3]/2,,4,4,{16}3-8[8:1]*-7[8:1],,4/5,,3x,,,,
{16}8b^5[8:1],,2/1,,3,,4,,6,5,7,4,6-1[8:1],,7,,
{8}4-8[8:1]/6,3,5-2[8:1]/4,6,4-8[8:1]*-7[8:1]/5,3,4x,,
{16}6b-1b[8:1]/5b-1b[8:1],,7,,6/5,,,,2,1,3,,4-8[32:3]/8,,3,,
{16}4/7-4[8:1],,6,,7/1,,2,,3x,4,2,6,5,7,1,8,
{4}2bz6b[16:5],,,5xh[8:1]/7xh[8:1],
{4}4hx[8:1]/7hx[8:1],4hx[8:1]/8hx[8:1],2-6b[8:1]/1-5b[8:1],{8}2b/1b,E6f,
{16}3x/4x,,3/4,,2/8,,3,4,2,8,1,,6/8,,4/5,,
{16}2/4,,2/4,,1/8,,1,7,3,5,4xh[4:1],,8x,,8x,,
{16}5/6,,5/6,,1/7,,6,5,7,1,8,2,6h[8:1],,4,,
{16}2,1,2,1,3h[8:1],,1,2h[8:1],,8,1h[8:1],,7,,6/5,,
{16}2,4,3,,1/7,,2/6,,4/5,,4/5,,7,8,6,,
{16}1/5,,1/5,,2,4,1h[8:1],,6,5,8,,2/6,,4/8,,
{8}3xqq6[2:1],,,,E8,,E5,,
{8}4<1[2:1],,C,,E2,E3,E4,E5,
{1}2b-8-3-7-4-6b[4:3],
{8}2h[4:1],,4h[16:11],,8hx[16:1],8hx[16:1],8xh[16:1],8xh[16:1],
{16}2x/6x,,3,4,2h[8:1],,7,5,6,4,5,3,8h[8:1],,2,,
{16}3,4,3,4,2h[8:1],,7,3h[8:1],,6,2h[8:1],,5,,3/4,,
{16}2,1,3,,4/8,,6,5,6,5,7,,2/1,,3/8,,
{16}5/7,,5/7,,2/1h[8:1],,3,8h[8:1],,4,7h[8:1],,5,6,4,5,
{16}3h[8:1],,6,5,7h[8:1],,1,,2/4,,3/5,,4/6,,5/7,,
{16}1/8,,3,,2/1,,8,8,2,,3/4,,2,,4/5,,
{16}6,5,7h[8:1],,8,,6/1,,2/5,,3/4,,1,8,8,,
{16}2/6,,1/7,,8,7,8,7,1,6,2,5,3,6,4,5,
{8}3bq5[2:1],,,,,6,6h[4:1],,
{8}3q6[2:1],,,,,7,8b,,
{8}6q1[2:1],,,,,3,3h[4:1],,
{8}6q8[2:1],,,,,4,3b,,
{8}2qq5[2:1],,,,,6,6h[4:1],,
{8}2qq6[2:1],,,,,7,8b,,
{8}7qq2[2:1],,,,,3,3,,
{8}7qq1[2:1]/4h[8:1],,4h[8:1],,3h[8:1],,2b,,
{4}3b,4,6,5,
{8}2b,3,4,5,7,6,5,4,
{12}1bx,2,3,8,7,6,{16}2bx,3,4,5,8,7,6,5,
{24}1bx,2,3,7,6,5,2bx,3,4,8,7,6,{32}1bx,2,3,4,8bx,7,6,5,2xb,3,4,5,1bx,8,7,6,
{1}4hxb[4:3]/5xhb[4:6],
{8}2b,,3b,,4bw8[8:1],,4b,,
{16}2b-5b[8:1]/1b,,3/8,,2/1,,8,,7,5,6,4,5-1[8:1],,4,,
{16}3^6b[8:1]/5,,2,,7-3[8:1]/3,,8,,1-6b[8:1]*-4b[8:1]/7,,2,,1,,,,
{16}7b-4b[8:1]/8b,,1/6,,7/8,,1,,2,4,3,5,4-8[8:1],,5,,
{16}6<2[16:3]/4,,5,,6,4,4,,3x-5b[32:3]*-8b[8:1],,2/4,,3x,,,,
{16}1b^4b[8:1]/2,,8,8,1,,7,,6,4,7,5,8-4[8:1],,1,,
{16}3^6b[8:1]/8,,2,,7-3[8:1]/3,,8,,5-8b[8:1]*-2b[8:1]/7,,4x,,5,,,,
{16}3b-8b[8:1]/4b,,2/5,,3/4,,5,,6,5,7,4,8h[8:1],,1,,
{16}2,2,4,3,6,6,5,7,1w5[8:1],,,,{96}Cf,B7,B3,E7,E3,,,,,,,,,,,,,,,,,,,,
{16}7b-4b[8:1]/8b,,6/1,,7/8,,1,,2,4,3,5,4-8[8:1],,5,,
{16}6^3b[8:1]/4,,7,,2-6[8:1]/6,,1,,8w4b[8:1]/2,,7,,8,,,,
{16}2b-5b[8:1]/1b,,8/3,,2/1,,8,,7,5,6,4,5-1[8:1],,4,,
{16}3>7b[16:3]/5,,4,,3,5,5,,6hb[8:1],,,3hb[8:1]/4bh[8:1],,,2b/1b,,
{16}8b^5b[8:1]/7b,,1,1,8,,2,,3,5,2,4,1-5b[8:1],,8,,
{16}6^3b[8:1]/1,,7,,2-6b[8:1]/6,,1,,4w8b[8:1]/2,,5x,,4,,,,
{16}6b-1b[8:1]/5b,,7/4,,6/5,,4,,3,4,2,5,1h[8:1],,8,,
{16}7,7,5,6,3,3,4,2,{32}8bx,7,6,5,4,3,2,1,8,7,6,5,4,3,2,1,
{1}8bx^2-6^5^4-8b[4:9]/Cf,
