&title=AIZO
&artist=King Gnu
&first=0
&des=五条悟
&lv_5=14
&inote_5=(190){1},,
{4}1x-4[8:1],,1x-4[8:1],,
{8}6,6,6,,3v5[8:1],,,,
{4}8x-5[8:1],,8x-5[8:1],,
{8}2,2,2,,7V53[16:3],,,,
{4}1x>4[8:1],,1x>4[8:1],,
{8}6,6,7h[4:1],,5qq4[16:3],,,,
{4}8x<5[8:1],,8x<5[8:1],,
{8}2,2,4,4,6,6,8,8,
{16}1b-5b[8:1],,,,,,,,7,3,7,3,7,3,7,3,
{4}8-4[8:1],28,1-5[8:1],17,
{8}6<1[8:1],,46,2pp3[16:3],,8h[8:3],,,
{4}1>4[8:1],15,8<5[8:1],48,
{8}2-6[8:1],,26,8qq1[16:5],,38,,,
{4}2>6[4:1],6<2[4:1],2>6[4:1],6<2[4:1],
{8}2,,5,3qq2[16:3]/6pp7[16:3],,36,,,
{8}4-8[8:1],,46,,5-1[8:1],,35,2,
{8}8h[8:1],4h[8:1],6h[8:1],2w6[8:1],,2,,,
{4}8xb-4b[8:1],28,1xb-5b[8:1],17,
{8}6>3[8:1],,46,2qq1[16:3],,5h[8:3],,,
{4}2xb>5b[8:1],26,8xb<5b[8:1],84,
{8}2-6[8:1],,25,7pp6[16:5],,47,,,
{4}3V17[4:1],7V53[4:1],3V17[4:1],7V53[4:1],
{8}3,,8,2V48[4:1]/7V51[4:1],,27,,,
{8}2,4-8[8:1]/7-4[8:1],,47,,1>7b[16:5],,16,
{8}8h[4:1],,,{24}18,27,36,4b>1b[8:1]/5b<8b[8:1],,,,,,,,,,,,
{1}Ch[2:3],,
{1}4h[4:1]/8pp5[2:6],4h[4:1],4h[4:1],4h[4:1],
{1}3>6[4:5]/5h[4:1],5h[4:1],4qq2>5b[2:3]/6h[4:1],8<5[2:1],
{4}3,3,3/4h[4:1],3,
{4}2-4[8:1]/5,6,{8}57,6,35,4,
{4}65,6,7/5h[4:1],6,
{4}5-8[8:1]/4,2,{8}17,1,28,8,
{8}3-5[8:1]/6,,7,,3/7-3[8:1],,8,,
{8}1-4[8:1]/5,,7,,35,3,46,6,
{8}1-3-8-4[2:1],,8,,7,7,6,6,
{24}2xb,1x,8x,7x,6x,5x,1x,8x,7x,6x,5x,4x,1x,8x,7x,6x,5x,4x,1x,8x,7x,6x,5x,4x,
{4}1xb-5b[8:1],6-8[12:1],1xb-5b[8:1],6-8[12:1],
{8}1,1,28,{16}3,,5,4,5,,7b,,,,
{4}8xb-4b[8:1]/1,3-1[12:1],8xb-4b[8:1],3-1[12:1],
{8}8,8,71,{16}6,,4,5,4,,2b,,,,
{4}1xb>4b[8:1]/8,5<8[8:1],1xb>4b[8:1],5<8[8:1],
{8}1,1,82,{16}3,,6,5,6,,7b,,,,
{4}8xb<5b[8:1]/1,4>1[8:1],8xb<5b[8:1],4>1[8:1],
{8}8,8,17,{16}6,,4-8b[8:1],5,3,,2b-5>4-7<6-1<8-3>2[1:1],,,,
{1},{32}6x,5xb-8b[12:1],4x,,,,,,,,,,,,,,{16}2,6,2,6,2,6,2,6,
{4}1b<6[8:1]*-5b[8:1],1b,1b-5b[8:1]*<6[8:1],1b,
{8}1>4[8:1],,15,7,{16}1,8,1,8,2-6[8:1],,,,
{4}8b>3[8:1]*-4b[8:1],8b,8b-4b[8:1]*>3[8:1],8b,
{8}8<5[8:1],,84,2,{16}8,1,8,1,7-3[8:1],,,,
{8}2,8,{48}6hb[8:1],D2,A2,D3,A3,D4,A4,D5,A5,,,,{8}7,1,{48}3hb[8:1],D8,A7,D7,A6,D6,A5,D5,A4,,,,
{8}1x,7x,{48}5hb[8:1],D1,A1,D2,A2,D3,A3,D4,A4,,,,{8}8x,2x,{48}4hb[8:1],D1,A8,D8,A7,D7,A6,D6,A5,,,,
{8}2x,8x,{48}6hb[8:1],D2,A2,D3,A3,D4,A4,D5,A5,,,,{8}7x,1x,{48}3hb[8:1],D8,A7,D7,A6,D6,A5,D5,A4,,,,
{8}1,7,5h[8:1],{32}2,1,8,7,6,5,4,3,{8}2/Cf,,,
{4}1b>4b[8:1]/5b<8b[8:1],1b/5b,2b>5b[8:1]/6b<1b[8:1],2b/6b,
{8}3<6[8:1]/7,,8,8,{16}1-5[8:1],7,2,7,1,,,,
{4}8b<5b[8:1]/4b>1b[8:1],8b/4b,7b<4b[8:1]/3b>8b[8:1],7b/3b,
{8}6>3[8:1]/2,,1,1,{16}8-4[8:1],2,7,2,8,,,,
{8}5x,1x,{48}7hb[8:1],A3,B3,B4,E5,B5,B6,A6,,,,,{8}8x,4x,{48}3hb[8:1],A7,B7,B8,E1,B1,B2,A2,,,,,
{8}4x,8x,{48}6hb[8:1],A1,B1,B2,E3,B3,B4,A4,,,,,{8}5x,3x,{48}1hb[8:1],A8,B8,B7,E7,B6,B5,A5,,,,,
{16}2b,4,3b,5,1,8,2b,7,5,6,4b,7,2,1,3b,8,
{32}4b,5,6,7,8,1,2,3,4,5,6,7,8,1,2,3,4bw8b[8:1],B7f,Cf,B3f,A3f,,,,,,,,,,,,
{1}A6h[128:1]/A5h[128:1]/A4h[128:1]/A3h[128:1]/D6h[128:1]/D5h[128:1]/D4h[128:1]/E4h[4:3]/E5h[128:1]/E6h[4:3],
E
