&title=You
&artist=dai
&first=0.103
&des=跟着mai师傅100号师傅学星星
&lv_5=12.9
&des_5=跟着mai师傅100号师傅学星星
&inote_5=
(86){4},{12},,4h[8:1]/5pp8<6[3:2],,,5
||这是一个标记~
,,,E3h[4:1]
||这是一个标记~
,
{24},B2h[8:1]/B3h[8:1]
||这是一个标记~
,,,{6}
||这是一个标记~
,{12},C
||这是一个标记~
,{24},5h[8:1]/4qq1>3[0.6977##1.8605]
||这是一个标记~
,{48},,,,,,,,,,,,,,,E7h[2:1],{12}
||这是一个标记~
,
{48},B7h[8:3],{24}
||这是一个标记~
,{48},,,B6h[4:1],
||这是一个标记~
,,,,,,,,,,,,{12}
||这是一个标记~
,{48},3,{24}
||这是一个标记~
,{48},,,2b,
||这是一个标记~
,,,,,,,,,,,7>2[24:11],{12}
||这是一个标记~
,
{48},7/B4,{24}
||这是一个标记~
,{48},,,7/E3,{6}
||这是一个标记~
,{24},{8}2-6[0.6395##0.814]
||这是一个标记~
,{48}
||这是一个标记~
,2bx,,,,,
||这是一个标记~
,6>3[4:1],,,,,,,,,,,,
||这是一个标记~
,,,,,E1,
||这是一个标记~
,,,,,,
||这是一个标记~
,,,,,,,,,,,{8}8b-4b[4.8837##0.3488],,{16}7/1,6/2,{8}5/3,5bh[8:1]/3bh[8:1],
{16},,B5/B3,B6/B2,{8}B7/B1,E8h[8:1]/E1h[8:1],{48},,,,,7/3,,,6/2,,,5/1,
||这是一个标记~
,,,,,B5/B1,,,,,,B7/B3,
,,,,,,{8}8-4[0##0.3488]
||这是一个标记~
,{48},,,,,1b-5-1b[0.6686##4.3605],,,,,,,,,,,,A7h[4:1],,,B1,,,C,,,,,,1x,,,,,,3,
,,,,,A3h[4:1]
||这是一个标记~
,,,C,,,B5,,,,,,
||这是一个标记~
,,,,,{24}5x,{48},,,,6,,,4,,,5-1[96:19],
||这是一个标记~
,{96},,,,,,,,,5,
||这是一个标记~
,,,,,,,,,,,,{48}
||这是一个标记~
,
{4},{16},{64},,{32}8bh[64:7]/1bh[64:7],{96},,,,,,,,{24}
||这是一个标记~
,{48},,,,8/1
||这是一个标记~
,,,8/1
||这是一个标记~
,,,{24}8/1
||这是一个标记~
,,,8h[8:1]/1h[8:1]
||这是一个标记~
,,,
||这是一个标记~
,
{64},,,,,E8/E2,,,E7/E3,,,,,B3/E4/B4/E6h[64:7]
||这是一个标记~
,,,,,,,4<6-2<8-4[64:33],
||这是一个标记~
,,,,,,,,,,,,,,,{16}7,7,7,,7,,7b,
{64},,,,,
||这是一个标记~
,,,,,,,,,,,,,,5pp1[3.8372##1.0465]*qq1[3.8372##1.0465]
||这是一个标记~
,,,,,,,,1b-7-5[4.5349##1.3517]*-3-5[4.5349##1.3517]
||这是一个标记~
,,,,,,,,8,
||这是一个标记~
,,,2,
||这是一个标记~
,,,8,{16}
||这是一个标记~
,{64},,,2h[8:1],{16}
||这是一个标记~
,,
||这是一个标记~
,
{64},,,3
||这是一个标记~
,,,,7
||这是一个标记~
,,,,3,,
||这是一个标记~
,,,,,,7h[8:1]
||这是一个标记~
,,,,,,,,
||这是一个标记~
,,,,,,,4,
||这是一个标记~
,,,6,
||这是一个标记~
,,,,5
||这是一个标记~
,,,,,,,,E8/E3
||这是一个标记~
,,,,,,,,B5h[64:1]
||这是一个标记~
,,,,,,,,
||这是一个标记~
,
,,,,,,,,,,,,,,{32}A7/A3
||这是一个标记~
,,,,
||这是一个标记~
,,,,
||这是一个标记~
,{64},,,,,,,,,,,,,5<8qq5[0.3924##1.7006]
||这是一个标记~
,,,,,,,,,{32}4h[8:1],,,,
||这是一个标记~
,
{64},,,,,,,,,,,,,4
||这是一个标记~
,,,,,,,,4b,,,,,,,,4,,,,,,,,,,,,,,,,1>4qq1[0.3488##1.7006],{32}
||这是一个标记~
,{64},,,,,8h[8:1],,,,,,,,
||这是一个标记~
,
,,,,,,,,,,,,,,{8}8,8b,{64}8,,,,,,,,,,,,,,,,,E5h[64:31]
||这是一个标记~
,,,,,,,{8}2bx/B5h[8:3]
||这是一个标记~
,
B4h[4:1]
||这是一个标记~
,,,1bx<8v7<6v5<7[0.3488##1.7878]*v2>3v4>2[0.3488##1.7878]
||这是一个标记~
,{4}1
||这是一个标记~
,{8}
||这是一个标记~
,
||这是一个标记~
,
{64}
||这是一个标记~
,,,,,,,,,,,,,,,1bx-5[1.3517##0.3924],,,,,,,,,,,,,,,,1,,,,8,,,,1,,,,,,,{32}1/8,{64},,,,,,,8-4[1.0029##0.3924],,,,,,,,8,
,,{32}1,{64},,,8,,,,,,,{32}8/1,{64},,,,,,,2>5[1.3517##0.3924],,,,,,,{32}1,,2,,1,,,,2x/3x
||这是一个标记~
,,,,2/1
||这是一个标记~
,,,,
||这是一个标记~
,
{64},,,,,,,,,,,,,5bx-1[1.3517##0.3924],,,,,,,,,,,,,,,,5,,,,4,,,,5,,,,,,,{16}5/4,{64},,,,,4-8[1.0029##0.3924],,,,,,,,4,,,5,
,,,,4,,,,,,,{16}4/5,{64},,,,,6<1[1.3517##0.3924],,,,,,,{16}5,6,5,,6x/7x,,6/5,,,,,,5h[8:1]/4>8[4:1],
,,,5,6,7,,7<3[0.6541##0.6977],,8bx,,8,
{64}1,,,2h[8:1],,,,,,,,,,,,,,,,1/2>5-1[64:23],{16}
||这是一个标记~
,{64},,,8b,
||这是一个标记~
,,,7,
||这是一个标记~
,,,6,{16}
||这是一个标记~
,{64},,,6,,,,,,,,7,,,,,,,,8b,,,,,,,,,,,,,,,,1-3[8:1]
||这是一个标记~
,
,,,,,,,8-6[0.5233##0.4797]
||这是一个标记~
,,,,,,,,1
||这是一个标记~
,,,,8
||这是一个标记~
,,,,
||这是一个标记~
,,,,,,,{32}2-4[8:1]
||这是一个标记~
,,,,7-5[0.5233##0.5233]
||这是一个标记~
,,,,2
||这是一个标记~
,,7
||这是一个标记~
,
,
||这是一个标记~
,,,,
||这是一个标记~
,,,,2-7[64:15]
||这是一个标记~
,,,,6-3[16:3]
||这是一个标记~
,,2b
||这是一个标记~
,,2
||这是一个标记~
,,,,6
||这是一个标记~
,{64},,,,,
||这是一个标记~
,,,,,,,,,{32}C
||这是一个标记~
,{64},,,,,,,,,,,,,B1/8b-5[4:1]
||这是一个标记~
,
,,,,,,,8/C
||这是一个标记~
,,,,,,,,8/B4
||这是一个标记~
,{4},{16},{64},,,B5/4b-1[4:1]
||这是一个标记~
,,,,,,,,4/C
||这是一个标记~
,,,,,,,,4/B8,
,,,,,,,Ch[8:1],,,,,,,,,,,,,,,{8}1q8[4:1],{64},,,,,,,,8p1[64:15],
||这是一个标记~
,,,,,,,1-4<6[1.0029##0.7413],
||这是一个标记~
,,,,,,,6<1[1.3953##1.0465],
||这是一个标记~
,{4},{16},{32},{64}1>5[1.3953##1.0465]
||这是一个标记~
,
,,,,,,,,
||这是一个标记~
,,,,,,,,,,,,,,5<8[1.439##1.7442],{8}
||这是一个标记~
,{64},
||这是一个标记~
,,,,,,,,
||这是一个标记~
,,,,,,,,,,,,,,,
||这是一个标记~
,
,,,,,,8-5>4-1[1.439##3.4884],
||这是一个标记~
,,,,,,,,,
||这是一个标记~
,,,,,,,,,,,,,,3
||这是一个标记~
,,,,,,,,2
||这是一个标记~
,,,,,,,,1
||这是一个标记~
,,,,,,,,,,,,,,,
||这是一个标记~
,
1b-4<5-8b[0.3488##2.1366],,,,,,,,
||这是一个标记~
,,,,,,,,,{8}
||这是一个标记~
,,,,,{1}
||这是一个标记~
,
E
