&title=神鳴
&artist=Rígr feat. 光吉猛修
&first=0
&des=Jian
&lv_5=14.9
&inote_5=(205)
{16},,,,,,,,,4,5,
(999)
{384},
(205)
{4}Cf/B1/B2/B3/B4/B5/B6/B7/B8/E1/E2/E3/E4/E5/E6/E7/E8,,,,,,,,
{8}8,2,7,3,6,4,5h[4:5],,,,,,,,,,E2,,,,,B3,B4,B5,,,,,,B7/B8,,,
{8}1,7,2,6,3,5,4h[4:5],,,,,,,,,,8x,,,,,,,,
{32}5h[32:7],4,,,
{8},3,6h[32:7],,2,7h[32:7],,
{16}1,8,1,8,1,8,1,8,1,8,1,8,1,8,1,8,1,8,2,7,1,8,2,7,1,8,2,7,1,8,2,7,1,8,2,7,3,6,4,5,4,5,3,6,2,7,1,8,1,2,3,4,5,6,7,8,1,2,3,4,5,6,7,8,
{16}16,,6,,38,,3,,6,5,7,4,7,8,6,1,
{16}25,,5,,47,,4,,3,4,2,5,2,1,3,8,
{8}45,45,36,36,27,27,1^4[8:1]*^6[8:1]/8,18,
{8}1w5b[8:1],,1,,1-5b[8:1],1,C,,
{16}47,,6,6,5,,6,,
{8}64,6,62,6,75,7,73,7,71,7,73,7,
{8}2h[8:3],3,4,5,6h[8:3],7,8,1,2h[8:3],1,8,7,6h[8:3],5,4,3,
{16}25,,3,3,4,,3,,
{8}35,3,37,3,24,2,26,2,28,2,26,2,
{8}7h[8:3],6,5,4,3h[8:3],2,1,8,
{16}5,6,4,7,3,8,2,,
{32}E4,E5,E6,E7,E8,E1,E2,E3,D4,D5,D6,D7,D8,D1,D2,,
{16}1x/6x,,7,7,8,,7,,
{8}71,7,73,7,
{8}68,6,62,6,64,6,62,6,
{8}5h[8:3]/4,3,2,1,
{16}8h[8:1]/7,6,5,4,3,2,,,
{8}8h[8:3]/1,2,3,4,
{16}5h[8:1]/6,7,8,1,2,3,,,
{16}38,,2,2,1,,2,,
{8}28,2,26,2,31,3,37,3,35,3,37,3,
{8}3h[8:3]/4,5,6,7,
{16}8h[8:1]/1,2,3,4,5,6,,,
{16}3,1,2,6,8,7,3,,
{24}5,4,6,
{16}5-1b[8:1],,5,,,,
{8}4-2-8-6<4b[4:13],,,,,,,5x,5hx[8:5],,,,,,,,5hx[8:5],,,,,,5x,5x,5x,5x,5x,5xw1b[6:1],,,,,
{16}3,4,3,4,3,,2V84b[6:1],,1,,28,,,,,,
{16}6,5,6,5,6,,7V15b[6:1],,8,,17,,,,,,
{16}47,,5,6,5-1b[8:1],,4,,3/5x,,3,,2,,,,
{16}25,,4,3,4-8b[8:1],,5,,4x/6,,6,,7,,,,
{16}2,1,2,1,2,,8-4b[8:1],,7,,68,,,,,,
{16}7,8,7,8,7,,1-5b[8:1],,2,,13,,,,,,
{16}16,,8,7,8-4b[8:1],,1,,2/8x,,2,,3,,,,
{16}3,4,2,,6,5,7,,2,,8,,8x/B3/B4/E4,,,,
{12}1hb[4:1]/2,3,4,5,6,,8hb[4:1]/7,6,5,4,3,,
{12}2hb[4:1]/1,8,7,6,5,,
{16}3b,4,5,6,7,8,1,2,
{12}3hb[4:1]/4,5,6,7,8,,1hb[4:1]/2,3,4,5,6,,1hb[4:1]/8,7,6,5,4,,
{16}2b,1,8,7,6,5,4,3,
{12}2hb[4:1]/1,8,7,6,5,,5hb[4:1]/4,3,2,1,8,,5hb[4:1]/6,7,8,1,2,,
{16}4b,3,2,1,8,7,6,5,
{8}47,2,25,6,48,3,
{16}7,1,6,2,
{8}53,6,
{16}1,8,2,,
{8}37,6,25,1,
{4}3/7qq4b[2:1],2-6[8:1]*-6[8:1],
{16}2b,Cf,,,,,,,
{8}3-8b[8:1],8V24b[6:1],3,7,6-2[8:1]*-3[8:1],,6,,
{4}1pp4b[2:1]/8,7-3[8:1]*-3[8:1],
{16}7b,Cf,,,,,,,
{16}6,5,7h[16:3],,8,8,,,2,1,3h[16:3],,4,4,,,
{4}5/6pp1b[2:1],4-8[8:1]*-8[8:1],
{16}4b,Cf,,,,,,,
{16}5,6,4,7,2,1,3,8,4-8b[8:1],,,,4/7>6b[8:3],,,,7/B2/B3/E3,,,,,,,,
{16}2,1,3,,4,,7,,
{12}1h,6,3h,8,5h,1,4h,7,2h,5,8h,4,
{4}1s5b[4:13],,,,,,,,8b,,,,,,,Ch[8:1]/B2/B3/E3/B7/B6/E7,
{16}1bx,E2,B2,B3,E6,B5,B4,E4,E8,B7,B6,E6,E2,B1,B8,E8,
{16}3bx,E3,B2,B1,E7,B6,B5,E5,E3,B3,B4,E5,E7,B7,B8,E1,
{16}1bx,B1,B2,B3,B5,B6,B7,B8,2bx,E3,E4,E5,E7,E8,E1,E2,
{16}2bx,A3,A4,A5,6bx,A7,A8,A1,
{32}2bx,D4,D5,D6,D7,D8,D1,D2,D3,D4,D5,D6,D7,D8,D1,D2,
{4}8s4b[6:1]/D3,,
{8},26,48,,
{12}2x/8x,2x/8x,2x/8x,2x-5b[8:1]/8x,,,2x/8x-4b[8:1],,,8x/3x^8b[8:1],,,3x/5x-1b[8:1],,,4x/5x,,3x/7x,3x/7x,3x/7x,3x/7x,3x/7x-4b[8:1],,,1x/7x,,,1x/6x,1x/6x,1x/6x,1x^4b[8:1]/6x,,,1x/7x-3b[8:1],,,2x/7x,,2x/8x,2x/8x,2x/8x,2x/8x,2x-6b[8:1]/8x,,,2x/7x,,,
{12}3x/8x,3x/8x,3x/8x,
{24}2x-5b[8:1],1x,2x,1x,2x,1x,2x/8x^5b[8:1],,,,,,
{12}3x-7b[8:1]/8x,,,3x/6x,,1x/5x,1x/5x,1x/5x,1x/5x,
{24}7x-3b[8:1],8x,7x,8x,7x,8x,1x/7x,,,,,,6x-2b[8:1],5x,6x,5x,,,4x/6x,,,,,,3x-7b[8:1],4x,3x,4x,,,3x/5x,,,,
{12}1x/5x,1x/5x,1x/5x,1x/5x,3x/7x,3x/7x,3x/7x,
{32}2,1,8,7,6,5,4,3,2,1,8,7,6,5,4,3,
{16}2hb[8:1]/8hb[8:1],,,4hb[8:1]/6hb[8:1],,,1hb[16:1]/7hb[16:1],,
{32}7,6,5,4,3,2,1,8,
{16}7hb[8:1]/2hb[8:1],,,1hb[8:1]/6hb[8:1],,,3hb[16:1]/8hb[16:1],,
{32}3,4,5,6,7,8,1,2,
{24}3b,7,3,7,3,7,3,7,3,7,3,7,Cf/B3/E3/E4/B7/E7/E8/B2/B4/B6/B8,,,,,,
{4},,,,,,,
{4}2v5>1b[1:2],,,,,,6,,5V73-1b[1:2],,,,,,7,,8-2^4-6b[1:2],,,,7,,8,,1-5b[4:7],,,,,,,,Cf/B1/B3/B5/B7,,,,
{4}8h[1:1],,,,4>8b[1:2],,,,6,,7,,8qq5b[1:2],,,,3,,4,,5>1b[1:2],,,,7,,8,,1qq4b[4:7],,,,5,,,,Ch[8:7],,,,
{16}4,6,4,6,4,6,4,6,3,7,3,7,3,7,3,7,2,8,2,8,2,8,2,8,1x,1x,1x,1x,1x,1x,1x,1x,1x^4[8:1]*^4[8:1],,,,1x^6[8:1]*^6[8:1],,,,1x,,,,5,,,,
{8}48,2,57,2,15,7,24,7,
{16}1x/5,2,3x/7,,4x/8,3,2x/6,,2/6x,7,4/8x,,3/7x,6,5x/1,,
{32}1x,2,3,4,1,8x,7,6,1x,2,3,4,1,8x,7,6,8,1x,2,3,8x,7,6,5,8x,1,2,3,8x,7,6,5,2x,3,4,5,1x,2,3,4,8x,7,6,5,7x,6,5,4,8x,1,2,3,8x,7,6,5,2x,3,4,5,8x,7,6,5,
{32}1hb[8:9]/4-2^1-7^6-4^3-1^8-6b[16:9],Cf/B1/B2/B3/B4/B5/B6/B7/B8/E1/E2/E3/E4/E5/E6/E7/E8,,,,,,,,,,,,,,,,,,,,,,,,,,,,,,,
{24}3b,4,5,6,7,8,1,2,3,4,5,6,
{32}2,3,4,5,6,7,8,1,2,3,4,5,6,7,8,1,
{16}25,6,7,8,14,3,2,1,78,6,5,4,37,2,1,8,
{16}72,,5,4,6,5,7,4,2,1,3,8,5,6,4,,
{16}78,6,5,4,38,1,2,3,45,6,7,8,15,2,3,4,15,,4,5,3,4,2,5,7,8,6,1,4,3,5,,
{8}7v4b[8:1],4V68b[6:1],7,1,2-6b[8:1],3,8-4b[8:1],7,5,3,
{16}1-5b[8:1],2,3,,
{8}8^5b[8:1]/1,7,4^1b[8:1]/8,3,4/7-3b[8:1],6,
{16}7,,1,1,4,,6,,8,1,7,2,6b-2b[8:1],,,,
{4}5b-1b[8:1]/6b,4b-8b[8:1]/5b,3b/4b,
{16}1,2,3,4,58,7,6,5,43,2,1,8,73,6,5,4,38,,
{16}2,8,1,7,8,6,3,4,2,5,1,8,2,,
{16}5,6,7,8,14,3,2,1,87,6,5,4,37,2,1,8,27,,
{16}6,8,7,1,8,2,6,5,7,4,8,1,7,7,
{16}2b-6b[8:1],,,8b-4b[8:1],,,5b>7b[8:2],,,,,,,,,,5,4,3,2,1,8,7,,5b-1b[8:1],,,3b-7b[8:1],,,6b<4b[8:2],,,,,,,,,,1b,5b,1b,5b,1b,5b,1b,5b,3b,7b,3b,7b,3b,7b,3b,7b,
{16}4,4,6,,2,,,,
{4}83,1-5[8:1]/2-6[8:1],2bpp5b[2:1]/1b,,
{8}5,6,7,8,1h[8:3],2,3,4,
{8}5h[8:1]/7h[8:1],,1h[8:1]/3h[8:1],,6h[8:1]/8h[8:1],,
{16}4,5,3,6,
{8}2-6b[8:1],,1-5b[8:1]/2,,8w4b[8:1]/1,7,,,
{4}3b-7b[8:1],4b-8b[8:1],5b-1b[8:1],6b-2b[8:1],3bq7b[8:1],4b-8b[8:1],5b-1b[8:1],6bp2b[8:1],
{16}8b>4b[8:1],,8b,,4b/8b,5,6,7,8b<4b[8:1],,8b,,4b/8b,3,2,1,
{16}8bx,6,1,5,3bx,1,4,8,2bx,6,1,7,3bx,8,4,6,
{16}1,1,1,1,1h,1h,1h,1h,
{16}1-5b[8:1],1h,1h,1h,1b,,,,
{12}8b,4b,7b,5b,
{24}6b,,,,
{24}1b,,5b,,2b,,4b,,3b,,,,
{12}2b,2b,
{24}7b/1b,6,5,4,3b/1b,4,5,6,
{12}2b,2b,2b,8b,8b,8b,
{12}3b/5b,,1b/7b,,4,6,
{32}2b,1,8,7,6,5,4,3,7b,8,1,2,3,4,5,6,7b<1b[2:3]/2b>8b[2:3],,,,,,,,
{4},,,,,,,
{32}1b/8b,2b/7b,3b/6b,4b/5b,
