&title=君のせい
&artist=the peggies「青春ブタ野郎はバニーガール先輩の夢を見ない」
&first=0
&des=
&wholebpm=174
&demo_seek=1.379
&demo_len=12.759
&des_6=Knのせい
&clock_count=4
&lv_6=13+
&inote_6=(174){1},{4}4x-8b[2:3]/5x-1[4:3],,,,
{4},,,{8},7h[2:1],
{8},1-5[8:1],2,1,,8,1-5[8:1]/7,28,
{8}1,,8,1-5[8:1]/6,27,1/8-4[8:1],,8,
{8},2,4h[8:4],5h[8:4],,,,,
{8},78,,34,,56,,1/2>8[4:3],
{8},1,,1,,1,,1,
{8},1/8,,{16}8,7,{8}8,1,1-5[8:1]/8-4b[1:1],,
{1}1b,
{2},{16}45,,3,4,3,4,3,,
{8}35,3h[4:1]/5h[4:1],,,46,4h[4:1]/6h[4:1],,,
{8}35,3h[8:1]/5h[8:1],,27,,{16}3x/6x,2x,1x/8x,7x,3x/6x,,
{8}1x-5[8:1],8,1,7x-4[8:1],1,7,3x,8,
{16}2,1,2,,4,3,4,,6,5,6,,78,,,,
{8}1hx[4:1],2,2,8hx[4:1],7,7,4hx[4:1],3,
{8}3,5hx[4:1],6,6,57,68,17,,
{8}8x-4[8:1],1,8,2x-5[8:1],8,2,6x,1,
{6}8h[6:1],6h[6:1],4h[24:13],{8}2h[24:9],,,{24},3x/5x,4x/6x,
{4}5hx[2:3]/7x,1,8,2,
{4}7,3,{8}6,5x,4,5x,
{8}6,7,8,1w5[8:1],,,,7w3[8:1],
{8},,,5,6,27,8,1,
{8}2-6[8:1],13,2x,,7-3[8:1],68,7x,,
{8}1-5[8:1],28,1x,,8-4[8:1],17,8x,1,
{8}1pp4[2:1],,7,7,,6,6,,
{8}4/5qq8[2:1],,3,3,,2,2,,
{8}3h[4:1],4,5,,2h[8:5],3,4,5,
{8}6,7,,1,{16}2h[8:1]/5h[8:1],,,1h[8:1]/8h[8:1],,,47,,
{8}3,25,1,6/8-4[4:1],,4,6,8-4[8:1],
{8},8V25[8:3]*V63[8:3],,,,,,,
{8}1/7-4[8:1],8,1/7x,,1/7-4[8:1],8,1/7x,,
{8}2-5[8:1]/8,1,2x/8,,2-5[8:1]/8,1,2x/8,,
{4}1h[4:1],3h[4:1],5h[4:1],7h[4:1],
{4}1,{16}28,,1,1,1,,28,,37,,46,,
{4}4>1[4:1]/6,1-5[4:1],5<8[4:1],8-4[4:1],
{8}4pp4[4:1]*qq4[4:1],,,,,6h[4:1],5,7x,
{8},3h[4:1],4,2x,,7h[4:1],6,8x<4[4:1],
{8},4>8[4:1],,8<2[8:3],,,,,
{4}5<8[4:1],8-4[4:1],4,1-4[8:1],
{4}8-5[8:1],1-6[8:1],8-3[8:1],2,
{8}12,,24,35,,46,,7q2[8:3]/8p5[8:3],
{8},,,,,{16}4,3,4,3,4,3,
{1}5<8[8:8],
{8}4>1[8:3],,,5-8[8:2],,,4-1[8:2],,
{8}8x,7,6,1x/5,,4/8x,37,26,
{8}1x/5,4/8x,,37,1x/5,4/8x,,7h[2:1],
{8},1-5[8:1],2,1,,8-4[8:1],1-5[8:1]/7,28,
{8}1,,8,1-5[8:1]/6,27,1/8-4[8:1],,8,
{8},2,4h[8:3],5h[8:3],,,4,5s1[4:1],
{8},,,5x,,8-6[8:1],,1x/8-2[8:1],
{8},7x/8-5[8:1],,2x/8-3[8:1],,6x/8-4[8:1],,5x/8-3[8:1],
{8},3x/8-5[8:1],,5x/8,,3,26,1,
{8}28,3,17,5,28,4h[4:1],,8,
{8}26,{16}3,4,{8}3,57,,{16}1,8,1,8,{8}2h[2:1],
{8},8-4[8:1],7,8,,1-5[8:1],2/8-4[8:1],17,
{8}8,,1,3/8-4[8:1],27,1-5[8:1]/8,,1,
{8},7,5h[8:3],4h[8:3],,,5,4z8[4:1],
{8},,,4x,,48,37,26,
{8},1>4[8:1]/5<8[8:1],,,,1-6[8:1]/5-2[8:1],,,
{8},,1-5[8:1],5>2[4:1],,6,7,8,
{8},1h[4:1],2,3,,8h[4:1],7,6,
{8},3,24,1,28,7,68,7/5h[8:3],
{8},6,6,3x/5h[8:3],4,4,4,5h[8:3]/7x,
{8}6,6,6,2x/5,1,8,7,4h[8:3]/6,
{8},5,5,2x/4h[8:3],3,3,3,4h[8:3]/6x,
{8}5,5,5,2hx[8:3]/4,,1,8,5x/7h[8:1],
{8}1,5h[8:4]/7x,,6,6,6,3x/5h[8:3],4,
{8}4,4,5h[8:4]/7x,6,6,6,6,1x/7x,
{8}4,2x/8x,5,1x/6x,3,45,45,,
{16}3x/6x,7x,1x/8x,2x,3x/6x,,7,,2,,8v5[8:1],1v4b[77.3333#18:1],8,,2hx[4:1]/8b,,
{8},,1b/5b`Cf,,,1v4[8:1],2/8v5[8:1],17,
{8}8,,1,3/8v5[8:1],27,1v4[8:1]/8,,1,
{8},7,4h[8:3],2h[8:2],,,24,2V84[4:1]/4V62[4:1],
{8},,,,,1-3[8:1],,1-7[8:1]/8x,
{8},1-4[8:1]/2x,,1-6[8:1]/7x,,1-5[8:1]/3x,,1-6[8:1]/4x,
{8},1-4[8:1]/6x,,1/4x,,6,37,8,
{8}17,6,28,4,17,5h[4:1],,1,
{8}37,{16}6,5,6,5,6,,4,,{16}8,1,8,1,{8}7h[2:1],
{8},1v4[8:1],2,1,,8v5[8:1],1v4[8:1]/7,28,
{8}1,,8,1v4[8:1]/6,27,1/8v5[8:1],,8,
{8},2,5h[8:3],7h[8:2],,,57,5/7-1-5-3[4:1],
{8},,,1x-5[8:1],,,,3x-7[8:1]/8x-2[8:1],
{8},,,7x-1[8:1],,6x-2[8:1],,5x-3[8:1],
{8},,1x-5[8:1],5x<4[4:1],,,,,
{8}2x-7[8:1]/8x-5>4[8:1],,,,1xv4[8:1]*v6[8:1],,,,
{16}3x/6x,2,18,7,36,,4,,5,,36,7,18,2,36,,
{8}1x-3[8:1]/8x,,1x-5[8:1]/4h[8:1],,1x-3[8:1]/8,,1x-5[8:1]/4,,
{8}1/8x-6[8:1],,5hx[8:1]/8x-4[8:1],,1h[8:1]/8x-6[8:1],,5/8x,5hx[4:1],
{8},8x,7,3x,2/5v6[8:1],,1,1,
{8},46,1,35,8,46,7,8<4[4:1],
{8},2,1,8>4[4:1],,7,8,1<5[4:1],
{8},3,2,1,,18,1-5[8:1]/8-4b[87#16:1],,
{4}1bx/7,2>5[8:1]/8bx<5b[87#16:1],1/2bx,1-5[8:1]/8bx-4b[87#16:1],
{4}1bx/7,2>5[8:1]/8bx<5b[87#16:1],1/2bx,1-5[8:1]/8bx-4b[1:1],
{1}1b,
{24}1b,,,,,,,,,,,6x,2hx[4:5],6hx[24:29],,,,,,,,,,,
{4},,,,
{8}5x-1[8:1],4,5,3xp7[8:1],5,3,6xq2[8:1],4,
{8}6,4x-8[8:1],5,4,6x,7,3x/8x,,
{8}12,,17,17,38,38,26,26,
{32}5b/7b,,,,,,,3b/5b,,,,,,,1b-5b[32:198]/3b,,,,,,,,1b/7b,,,,,,,,,,
{1},
{1},
{1},
{1},
{1},
{8},,,,,,,7s3[32:7],
