&title=タカナリ feat.初音ミク
&artist=ATOLS
&first=0.01
&des=Tane
&freemsg=ATOLS
&wholebpm=
&des_1=Tane
&des_2=Tane
&des_3=Tane
&des_4=Tane
&des_5=Tane
&lv_5=12+
&inote_5=(163.5){4},,,,
{4}4h[16:3],4h[8:1],5h[16:3],5h[8:1],
{4}3h[16:3],3h[8:1],6h[16:3],6h[8:1],
{4}4h[16:3],4h[8:1],5h[16:3],5h[8:1],
{4}2h[16:3],2h[8:1],7h[16:3],7h[8:1],
{4}4h[16:3],4h[8:1],5h[16:3],5h[8:1],
{4}1h[16:3],1h[8:1],8h[16:3],8h[8:1],
{4}4h[16:3],4h[8:1],5h[16:3],5h[8:1],
{4}4h[16:3],4h[4:1],{16}5,,,45,
,,45,,
{16}3h[16:3],,,4,
3,,5,,
6h[16:3],,,5,
6,,4,,
{16}2h[16:3],,,4,
2,,5,,
7h[16:3],,,5,
7,,4,,
{16}3h[16:3],,,4,
3,,5,,
6h[16:3],,,5,
6,,4,,
{16}3h[16:3],,,4,
2,,5,,
6h[16:3],,,5,
7,,4,,
{16}3h[16:3],,,4,
3,,5,,
6h[16:3],,,5,
6,,4,,
{16}2h[16:3],,,4,
3,,5,,
7h[16:3],,,5,
6,,4,,
{16}45,,3,4,
3,,6,5,
6,,3,4,3
,,6,5,
{16}7,,3,4,
2,,6,5,
7,,3,4,
1,,8,,
{4}7,6,{8}56,,,4,
{4}3,2V46[4:1],1,8,
{8},8,7,,
67,,,6,
{4}5,4V68[4:1],3,2,
{8},1,{4}8-6[4:1],6-3[4:1],,
{8},8,{4}1-3[4:1],3-6[4:1],,
{8},1,,2,
34,3,34,3,
{8},4,,6,
56,6,56,6,
{8},6,76,,
67,,,6,
{4}7-5[4:1],5-1[4:1],1-3[4:1],,
{8},3,23,,
23,,,3,
{4}2-4[4:1],4-8[4:1],8-6[4:1],,
{8},5,4,5,
34,34,25,25,
{8},4,5,4,
56,56,47,47,
{8},2-5[8:1],,7,
7,8,78,78,
{8},7-4[8:1],,2,
2,1,21,21,
{8},8^3[4:1],,3p6[4:1],
,6^3[4:1],,3z7[4:1],
{8},7<2[4:2],,,
1,1,,,
{8}1,8-4[8:1],,1,
2,3,4,3,
{8},5-7[8:1],,2,
1-3[8:1],,5,,
{8},6,5,,
3,4^7[4:1],,7^2[4:1],
{8},2p4[4:1],,3,
,3q5[8:5],4,5,
{8},,,,
,6,7,81,
{8},,,,
4^1[8:1]/5^8[8:1],,,,
{16}46,,,3,
4,,24,,
35,,,6,
5,,57,,
{16}46,,,3,
4,,14,,
35,,,6,
5,,58,,
{4}4^1[4:1],1^6[4:1],6,5^8[8:1],
{8}3,3h[4:1],,4,
3h[4:1],,2,,
{4}2-6[8:1],1-5[8:1],8-4[8:1],{8}6,6,
{4}7-3[8:1],8-4[8:1],1-5[8:1],2,
{8}3,4h[4:1],,1h[8:3],
,,8,,
{4}1-5[8:1]/8-6[8:1],1-3[8:1]/8-4[8:1],,,
{16}42,,,5,
4,,47,,
57,,,4,
5,,25,,
{16}14,,,5,
4,,57,,
58,,,4,
5,,24,,
{4}5^8[4:1],8^3[4:1],3,4^1[8:1],
{8}6,6h[4:1],,5,
6h[4:1],,7,,
{4}7-3[8:1],8-4[8:1],1-5[8:1],{8}3,3,
{4}2-6[8:1],1-5[8:1],8-4[8:1],7,
{8}6,5h[4:1],,8h[8:3],
,,1,,
{4}8-4[8:1]/1-3[8:1],8-6[8:1]/1-5[8:1],,,
{16}25,,,6,
5,,57,,
8,,2,1,
2,,3,,
{16}74,,,3,
4,,42,,
1,,7,8,
7,,6,,
{16}15,,,6,
5,,47,,
8,,2,1,
2,,31,,
{16}84,,,3,
4,,52,,
1,,7,8,
7,,68,,
{4}1-5[8:1],7-3[8:1],5-1[8:1],{8}7,7,
{4}8-4[8:1],2-6[8:1],4-8[8:1],{8}2,,
{8}1,1h[4:1],,5h[8:3],
,,4,,
{4}4-2[8:1]/5-7[8:1],4-8[8:1]/5-1[8:1],,,
{16}27,,3,4,
3,,6,5,
6,,3,4,
2,,6,5,
{16}7,,2,1,
2,,6,5,
6,,7,8,
7,,3,4,
{16}3,,7,5,
6,,2,4,
3,,6,5,
6,,2,1,
{16}2,,3,4,
3,,7,8,
7,,2,4,
3,,6,5,
{8}6/4b,6,6/4b,6,
6/3b,6,6/3b,6,
{8}2/5b,2,2/6b,2,
2/7b,2,2/8b,2,
{16}1b,8,1b,8,
1b,8,1b,8,
1b,8,1b,8,
1b-7[8:1]*-6[8:1],,,,
{4}1-3[8:1]*-4[8:1],1w5[8:1],,,
{16}3h[16:3],,,4,
2,,5,,
6h[16:3],,,5,
7,,4,,
{16}2h[16:3],,,4,
1,,6,,
7h[16:3],,,5,
8,,3,,
{16}3h[16:3],,,5,
2,,6,,
6h[16:3],,,4,
7,,3,,
{16}2h[16:3],,,3,
1,,5,,
7h[16:3],,,6,
8,,4,,
{16}3h[16:3],,,4,
2,,6,,
6h[16:3],,,5,
7,,3,,
{16}2h[16:3],,,5,
1,,6,,
7h[16:3],,,4,
8,,3,,
{16}3h[16:3],,,4,
2,,5,,
6h[16:3],,,5,
7,,4,,
{8}25,25,36,36,
{16}7,4,7,4,
8,5,8,5,
{1},,,,,,,,,,,,,,,,
