&title=Schwarzschild [DX]
&artist=Tsukasa
&first=0
&des=魔曲之魂
&wholebpm=188
&freemsg=Tsukasa
&shortid=803
&genre=maimai
&cabinate=SD
&version=maimai FiNALE
&lv_6=14+
&inote_6=(188){1},
{8}3^6x[8:32],,,,,,,,
{16},,,,,,,,,,,,,,,,
{8}C,,,,,,,,
{16},,,,,,,,,,,,,,,,
{8}6>3x[8:32],,,,,,,,
{16}B8,B1,B2,B3,E8,E1,E2,E3,A7,A8,A1,A2,D7,D8,D1,D2,
{8}C,,,2qq7[8:7],,,,,
{16},,,,,,,,,,,,,,,,
{8}1-7[7:1],,,1x-6[6:1],,,1x-5[6:1],,
{8},1x-4[6:1],,,2x-6[6:1],,2xv3-5[6:2],,
{8}7-1[7:1],,,7x-2[6:1],,,7x-3[6:1],,
{8},7x-4[6:1],,,6x-2[6:1],,6xv5-3[6:2],,
{8}1-7[7:1],,,1x-7-5[7:2],,,1x-7-4[7:2],,
{8},1x-7-3[7:2],,,2x-6[6:1],,2xv3-5[6:2],,
{8}7-1[7:1],,,7x-1-3[7:2],,,7x-1-4[7:2],,
{8},7x-1-5[7:2],,,6x-2[6:1],,6x^1b[8:3],,
{16}6^4[8:4]/8>4b[8:4],{16},,,,,,,,,,,,,,,
{8}7x-5[8:1],5xp8[4:1],,8<5[4:1],,5p8[4:1],,8<5[4:1],
{16},,5p8[4:1],,,,8-6-4[64:17],,D4,,D3,,D2,,D1,,
{8}2x-4[8:1],4xq1[4:1],,1>4[4:1],,4q1[4:1],,1>4[4:1],
{16},,4q1[4:1],,,,1-3-5[64:17],,D6,,D7,,D8,,D1,,
{8}8x-6[8:1],6xp1[4:1],,1<6[4:1],,6p1[4:1],,C,
{16}D5,D4,D3,D2,B8,B7,B6,B5,E4,E3,E2,E1,A7,A6,A5,A4,
{16}E3,B2,B1,E1,E5,B4,B3,E3,E7,B6,B5,E5,E1,B8,B7,E7,
{32}D5,A4,D4,A3,D3,A2,D2,A1,D8,A7,D7,A6,D6,A5,D5,A4,
{24}A2,E3,B3,B4,E5,A5,A1,E1,B8,B7,E7,A6,
{8}2x-4[8:1],4x-7-1[4:1],,1>5[4:1],,5<1[4:1],,1>5[4:1],
{16},,5<1[4:1],,,,1-3-6[64:17],,D5/E5,,D6/E6,,D7/E7,,D8/E8,,
{8}7x-5[8:1],5x-2-8[4:1],,8<4[4:1],,4>8[4:1],,8<4[4:1],
{16},,4>8[4:1],,,,8-6-3[64:17],,D5/E5,,D4/E4,,D3/E3,,D2/E2,,
{8}1x-5[8:1],5x-7-2[4:1],,2>6[4:1],,6<2[4:1],,C,
{16}D5,D6,D7,D8,B2,B3,B4,B5,E8,E1,E2,E3,A5,A6,A7,A8,
{16}E4,B4,B5,E6,E2,B2,B3,E4,E8,B8,B1,E2,E6,B6,B7,E8,
{32}D5,A5,D6,A6,D7,A7,D8,A8,D2,A2,D3,A3,D4,A4,D5,A5,
{24}A7,E7,B6,B5,E5,A4,A8,E1,B1,B2,E3,A3,
{8}5^6-8[6:1],B4/B3,D4/A3,2-4^5[6:1],B1/B8,D1/A8,7^8-2[6:1],B6/B5,
{16}D6/A5,,4-6^7[6:1],,B3/B2,,D3/A2,,1x^4[16:3],,3x^6[16:3],,5x^8[16:3],,7x^2[16:3],,
{8}B5/B4/E5f,,,,,6^3[8:1],3^6[8:1],6q3[6:1]*<2[6:1],
{8},,,,7-3[8:1]/1-5[8:1],,7^4[8:1]/1^4[8:1],,
{8}7-1v6[32:9],,,5-7v4[32:9],,,3-5v2[32:9],,
{16},,1-3v8[32:9],,,,,,
{32}A7,E7/D7,A6,E6/D6,A5,E5/D5,A4,E4/D4,A3,E3/D3,A2,E2/D2,A1,E1/D1,A8,E8/D8,
{16}4-1[11:1],,,6-3[11:1],,,8-5[11:1],,4-7[11:1],,,2-5[11:1],,,8-3[11:1],,
{16}6-2[9:1],,,,,,,,
{64}A5,A1,{32}D1/D5,A8/A4,D8/D4,A7/A3,D7/D3,A6/A2,D6/D2,5x-8[8:1]/1x-4[8:1],,,,,,,,
{1}C1f,
{1},
{1},
{2},3b>7[2:1],
{1}7bp6-4-2-8b[4:6]*<1[4:3],
{8},,,,,,,,
{8}7x-5[6:1],,,1x-7[6:1],,,,3x-1[6:1],,
{8},,5x-3[6:1],,,,,
{4}8-5[4:6],,,,
{16},,,,,,,,E8,,B7,,B6,,E6,,
{4}2-7[4:6],,,,
{16},,,,,,,,E2,,B1,,B8,,E8,,
{4}4-1[4:6],,,,
{16},,,,,,,,E4,,B3,,B2,,E2,,
{4}6-3[4:6],,,,
{16},,,,,,,,E6,,B5,,B4,,E4,,
{256}1bxp4^1p4^1p4b[62.67#12:5],8bx^5p8^5p8^5[62.67#12:5],,,
{64},,,{16},,,,,,,,,,,E1,E8,E7,E6,
{16}E5,E4,E3,E2,E1,E8,E7,E6,E5,E4,E3,E2,E1,E8,E7,E6,
{16}E5f[8:1],,,,,,,,E4,B4,B5,E6,C,,,,
{16}3^5b[8:1],,5v2b[8:1],,,,6^8[8:1],,,,6^3[7:1]/3^8[7:1],,,,3q1[32:8],,
{16},,1<5[6:1],,,,4-8b[8:1],,3-1[8:1],,2-7[8:1],,,,,,
{16}6^4b[8:1],,4v7b[8:1],,,,3^1[8:1],,,,3^6[7:1]/6^1[7:1],,,,6p8[32:8],,
{16},,8>4[6:1],,,,5-1b[8:1],,6-8[8:1],,7-2[8:1],,,,,,
{16}3-5b[8:1],,5v2b[8:1],,,,7-1[8:1],,,,7^4[7:1]/4^1[7:1],,,,4q2[8:2],,
{16},,2<5[5:1],,,,C,,{24}B4,B3,B2,B1,B8,B7,E5,E4,E3,E2,E1,E8,
{24}A5,A4,A3,A2,A1,A8,B5,B6,B7,B8,B1,B2,E5,E6,E7,E8,E1,E2,A4,A5,A6,A7,A8,A1,
{24}A3,E4,B4,B5,E6,A6,A1,E2,B2,B3,E4,A4,A7,E8,B8,B1,E2,A2,A5,E6,B6,B7,E8,A8,
{16}2x-4[8:1],,4x-6v3[8:2],,,,3x-5-7-1[8:2],,,,1x-4[8:1],,,,C,,
{16}5<1b[16:4],6<1[16:3],7>1b[16:2],8>1[16:1],D6/E6,D7/E7,D8/E8,D1/E1,
{16}2>6b[16:4],3<6[16:3],4<6b[16:2],5<6[16:1],D3/E3,D4/E4,D5/E5,D6/E6,
{16}7x-1[8:1],,1x-3v8[8:2],,,,8x-2-4-6[8:2],,,,6x-1[8:1],,,,C,,
{16}2>6b[16:4],3<6[16:3],4<6b[16:2],5<6[16:1],D3/E3,D4/E4,D5/E5,D6/E6,
{16}7>3b[16:4],8>3[16:3],1>3b[16:2],2>3[16:1],D8/E8,D1/E1,D2/E2,D3/E3,
{16}4x-6[8:1],,6x-8v5[8:2],,,,5x-7-1-3[8:2],,,,3x-6[8:1],,,,C,,
{16}7>3b[16:4],8>3[16:3],1>3b[16:2],2>3[16:1],D8/E8,D1/E1,D2/E2,D3/E3,
{16}4<8b[16:4],5<8[16:3],6<8b[16:2],7>8[16:1],D5/E5,D6/E6,D7/E7,D8/E8,
{24}A2,E3,B3,B4,E5,A5,A8,E1,B1,B2,E3,A3,A6,E7,B7,B8,E1,A1,A4,E5,B5,B6,E7,A7,
{32}1xpp3b[16:1],2xpp4[16:1],3xpp5b[16:1],4xpp6[16:1],
{32}5xpp7b[16:1],6xpp8[16:1],7xpp1b[16:1],8xpp2[16:1],
{32}B1/E2,B2/E3,B3/E4,B4/E5,B5/E6,B6/E7,B7/E8,B8/E1,
{32}A1,A2,A3,A4,A5,A6,A7,A8,D1/E1,D2/E2,D3/E3,D4/E4,D5/E5,D6/E6,D7/E7,D8/E8,
{16}C1hf[8:6],,,,,,,,,,,,
{16}E7/E6/E5/E4/E3/A6/D6/A5/D5/A4/D4/A3/D7/D3/A7/A2,,,,
{16}A2,E2,E1,A8,A4,E4,E3,A2,A6,E6,E5,A4,A8,E8,E7,A6,
{8}1x-5[8:1],5x-3-8[8:2],,8<4[10:2],,4>2q6b[230:63],,C,
{24}6x>2b[10:2],E7,B7,B8,B1,E2,{32}2xq6b[23:4],D2,A1,D1,A8,D8,A7,D7,
{24}6x>2b[10:2],E7,B7,B8,B1,E2,{32}A2,D2,A1,D1,A8,D8,A7,D7,
{8}5x-1[8:1],1x-7-4[8:2],,4>8[10:2],,8<6q2b[230:63],,C,
{24}2x<6b[10:2],E3,B3,B4,B5,E6,{32}6xq2b[23:4],D6,A5,D5,A4,D4,A3,D3,
{24}2x<6b[10:2],E3,B3,B4,B5,E6,{32}A6,D6,A5,D5,A4,D4,A3,D3,
{16}1x-5[8:1],,5^2[8:1],,,,7-1[12:1],,,,3-8[10:1]/7-4[10:1],,,,3^6[10:1]/7^2[10:1],,
{16},,3v8b[10:1]/7v4[10:1],,,,C,,
{48}1bx>1[48:8]/5bx<5[48:8],2x>1[48:7]/6x<5[48:7],
{48}3x<1[48:6]/7x>5[48:6],4x<1[48:5]/8x>5[48:5],
{48},,
{16},,{256}5bp1^3z7^1z5b[8:63],1bp5^7z3^5z1[8:63],,,
{96}D6f,D2/A2,A6,D7,D3/A3,A7,D8,D4/A4/D5,A8,{64}D1,,,,,{16},
{1},
{1},
{1},
{8},,,,B2,B6,A2,A6,
{1},
{1},
{1},
{8},,,,B1,B5,A1,A5,
{1},
{1},
{1},
E
