&title=万吨匿名信
&artist=闫东炜
&first=0.09999999
&des=⑨.X
&des_5=
&lv_5=14
&inote_5=(120){4},{8},,6,{16}4,4,{8}6,{16}4,4,
{8}6<8[16:1]/3>1[16:1],5/4,{4}6/3,{8}2,{16}8,8,{8}2,8,
3-7[12:1]/7-3[12:1],B5/B1,{4}3/7,{8}6,{16}5,4,{8}6,{16}5,4,
{8}3/6,2/7,1/8,1/8,{4}1/8h[#1.875],{16}B1,B2,B3,B4,
,,{8}Ch[16:5],{16},,,,,,,,,,,,{8}6/4,
{16}7,5,{8}6/4,{16}3,5,{8}4v7[8:1]/2v7[8:1],5/C,{4}4/2,
{8}6/8,{16}7,1,{8}8/2,1/3,{16}2,8,3,7,{8}4,4b,
5/3,{16}6,4,{8}5/3,{16}4,6,{8}5/7,{16}6,6h[16:3],,3,{8}3,
2/5,6,{16}4,7,5,6,{4}3h[8:1],{8}C,C,
2/6,{16}3,6,{8}7/4,{16}3,7,{8}6-8[8:1]/5-1[8:1],3/8-4[8:1],{4}6/5,
{8}2,{16}1,4,{8}5b/2b,{16}3,7,2,6,3,5,2,6,{8}4,
6/3,{16}5,4,{8}5,{16}7,4,{8}6-1[8:1]/5-2[8:1],8/1V75[8:1],{4}6/5,
{8}3,4,{16}5,4,6,4,{8}3/5,7/E2/B2,4/6,1/E6/B5,
7/2,{16}8,1,{8}2/7,{16}7,1,{8}6/2v4[8:1],5/4p8[8:1],2,7,
6,{16}5,3,{8}4/6,{16}3,3,1,3,8,2,1,3,4,2,
{8}5/1,{16}2,3,{8}2,{16}6,5,{8}7/4,{16}3,4,{8}2,{16}6,5,
8b,1,4,1,8b,4,6,5,{4}7h[8:1]/4h[8:1],{16}1,4,2-4[16:1],3,
1,5,{8}2,{16}8,5,7b-5b[16:1],6,8,4,{8}7,{16}2,4,3-1[16:1],5,
1,8,{8}3,{16}5bx,8,6bx-8b[16:1],1,7bx,8,{8}6bx,{16}1,1,7,7,
{8}2b/6b,{16}3,4bx/2bx,,7,{8}6bx/8bx,{16}5x/4x,6bx/3bx,,7/2,,E1/E6/B5,,E1/B4/E4,
,E8/E4,{8}E2/E6,{4}3b/7b,{12}B2,C,{48}B6,,,,,,,B3,{6}B4,
{16}4,5,{8}4,{16}3,4,2-5[16:1],1,3,2,{8}4,{16}1,8,5-8[16:1],6,
1,3,{8}5,{16}7,5,2-6[8:1],4,7,1,{8}2,{16}3,3,4,4,
{8}2/5,{16}5/1,6bx/2bx,,7/3,{8}5bx/1bx,{16}6x/2x,7bx/3bx,,1x/5x,,E6/B6,,E4/B3,
,E7/B7,{8}B3/E3,5/E5,1/E1,{16}E4/E8,E7/E3,,8/1,,6/3,,7/2,
{8}1/8,6/3,8/1,{16}6/3,4/8,,1/8,,3/6,,3bp6[16:13]/7b>2[16:13],{8}7b/3b,
,,,,,,,,{2}1p7v1-7<5-3>1[3:11],
6,
{24}5,,,,,,,,,,,7?v1-7b[0##2.125],{2}4,
3,2,
1,5-1b[8:1],
{8}4h[8:3],,,5,4h[8:3],,,5,
{4}3-7[16:1],4-8[16:1],5-1[16:1],{8}6,7,
1/8h[8:3],,,1,{4}8h[8:3],{8}2-6[16:1],2,
{4}1-5[16:1],{8}8-4[16:1],8,4w8[16:1],C,{4}B4f,
{8}4/3h[8:3],,,5,4h[8:3],,,5,
{4}3-1[16:1],4-8[16:1],5-1[16:1],{8}6-8>1[8:1],6,
6h[8:3],,,5,4h[8:3],,,5,
{4}5-8[16:1],{8}4-1[16:1],3,7,E7/B6/B3/E3,{4}B3/E3/B6/E7,
{8}8h[8:3],,,1,{4}8h[8:3],{8}1-5[16:1],2,
{4}1/2-6[16:1],2/3-7[16:1],{8}3/4,5,6,7,
1/8h[8:3],{16},,,,1,1,{4}8h[8:3],{8}2-6[16:1],2,
{4}2/1-5[16:1],{8}1/8-4[16:1],8,8/4w8[16:1],C,{4}4/Cf,
{8}4/5h[8:3],,,4,4/6h[8:3],,,5,
{4}6/5-1[16:1],5/6-2[16:1],{8}6/7,8,1/8<5[16:1],2,
{4}8/2,{8}3/4-8[16:1],{16}5,6,{4}4,{8}7/1-6[16:1],2,
{4}3/1-4[16:1],{8}8-6-2-4[16:5]/1q4[16:5],7,{2}8b/1b,
{8}6/3,{16}5,4,{8}6/3,{16}5,4,{8}3v8[8:1]/6v1[8:1],1/8,{4}6/3,
{8}7/2,{16}1,8,{8}7/1-4[16:1],6,7/1-6[16:1],8,{4}1/3,
{8}7/4,{16}6,5,{8}7/4,{16}3,4,{8}2/5,3/7,1/6,2/7,
{4}8h[16:3]/3h[16:3],{16}2-5[16:1],1,3,8,{8}2-6[16:1],8,2/7,8,
7/3,{16}2,1,{8}8/3,{16}7,2,{8}6/3v5[8:1],2/5>1[8:1],1/3,8,
7bv4[8:1],{16}8,1,{8}7,{16}2,2,6,3,5,2,6,4,{8}8,
5/2,{16}4,3,{8}5/2,{16}3,4,{8}2v8[16:1]/5v7[16:1],3/C,5/2,1,
8/2,{16}3,5,2,7,1,5,{2}7<5<7[8:1]/3-1-4-2[16:3],
{8}8,{16}2,1,{8}8/3,{16}7,1,{8}2/6v1[8:1],7/1<5[8:1],2/6,3,
4,{16}3,5,{8}4,{16}4,5,3,6,4,7,3,5,{8}1,
5/2,{16}4,3,{8}5/2,{16}3,4,{8}2v8[16:1]/5v7[16:1],3/C,5/2,1,
{16}8/2,,,6,{8}5,4/6,8-4[16:1]/1-5[16:1],7/2,{4}8b/1b,
{8}4b/5b,{16}6/3,6/3,{8}7b/2b,{16}8/1,8/1,{8}7b-4[16:1]/2b-5[16:1],8/1,{4}7/2,
{8}1/8,{16}7,8,{8}6,{16}5,6,8,7,5,6,{4}8b/7b,
{8}2b/7b,{16}8/1,8/1,{8}7/2,{16}6/8,6/8,{8}7/2,7/5,8b/4b,{16}6,6,
{8}5/2>5[8:1],5v3[8:1],2,7,{16}8,8,2,1,{8}2,2,
7b/1b,{16}6/8,6/8,{8}5/1,{16}8/1,7/2,{8}3b-5[12:1]/6b-2[12:1],8/2,{4}6b/3b,
{8}3/8,{16}3,4,3,5,2,3,2,4,3,4,{8}2,2,
1b/6b,{16}1/6,6/1,{8}7/2,{16}8/4,8/4,{8}7bv4[12:1]/3bv5[12:1],6/2,{4}3b/7b,
{8}7<4[8:1],4q8[8:1],7,3,{16}3qq4[16:3],4,5,6,{4}7/3,
{8}8,{16}5,5,{8}2/6,{16}3,3,8-4[16:1]/4-8[16:1],3/7,2/6,1/5,{4}4/8,
1b-5[8:1],2bv4[8:1],{8}6bp3[4:1],7b,{4}8b,
{8}7,{16}8,2,{8}6/2,7/1,3/7-4[16:1],{16}8,8,{8}7/1,{16}8,8,
{8}5b<8[8:1],4,1v6[8:1],{16}2,2,{8}5<8[8:1],2b,{4}2b,
{8}1,{16}3,3,{8}2/8,{16}5,5,{8}4/6,{16}3,3,{8}8/2,{16}7,7,
{8}6/3b>8[8:1],5,{16}3b/8,7,6,5,4b-8[8:1],5,8-4[8:1],6,{8}E7/B6,E5/B4,
7,{16}6,6,{8}7/8,{16}4,4,{8}2/3,5/7,1/4,{16}5,5,
{8}6/3,6/3,{16}4b,5b,{8}4b,6/3,7/2,{16}1b,8b,{8}1b,
7b/2b,3b/6b,{16}4b/5b,4b/5b,{8}4b/5b,{48}5b/4b,3x/6x,2x/7x,8x/1x,,,1x/8x,7x/2x,6x/3x,5b/4b,,,{16}3bq5[4:1]/6bq8[4:1],7b/2b,{8}8b/1b,
{32},,,,,,,,,,,,1w5[0.25##0.1667],1,1,1,{2}1h[32:1],
{4}B6/Ch[2:1],E5,{2}B3,
E
