&title=人気爆発/博麗霊夢
&artist=黄昏フロンティア; 上海アリス幻樂団
&first=0
&des=CH3COOL
&lv_5=13
&inote_5=(180)
{8},,,4/6b,4,4/2b,4,3/6b,
{8}2,8b,1,7b/1b,1-6[8:1],,5-2[8:1],,
{8}1-4[8:1],,5-8[8:1],,1pp6[8:8],{16},,5,,,,
{16}6,,,7,,,8-4[8:1],,,,,,,,,,
{8},1/5,,3/7,2/6,3/7,2/6,,
{8}1,8-4[8:1],7,6-2[8:1],,8-4[8:1],,6,
{8}7,8,1h[4:2],,5,4,3h[8:2],,
{8}4,5-2[8:1],,8,,4-7[8:1],,3,
{8}2,1,8-3[8:1],,4,5,6h[4:1],,
{8}8,8,,1h[8:4],,,,2,
{8}3,4,3h[8:3],,,7,7,,
{8}2,1,8,{48}7,6,5,,,,{48}7,6,5,,,,{48},,,,,,{48}2,3,4,,,,2,3,4,,,,
{8},{48}7,6,5,,,,{48}7,6,5,,,,,,,,,,{48}2,3,4,,,,2,3,4,,,,{8},7-3[8:1],
{8},3w7[4:8],,,,,,,
{8},,,,,,,,
{8},,,,,,,,
E
