&title=Never End
&artist=Cres.
&first=0
&des=Hamorati
&lv_5=14+
&des_5=Hamorati
&inote_5=
(190){4},,,,,,,,{1}4bw8[4:13],
,,,8h[4:3]/1pp6[2:3],
7h[4:3],
4h[4:3]/5pp2[2:3],
3h[4:3],
8h[4:3]/3qq5[2:3],
7h[4:3],
4h[4:3]/7qq1[2:3],
3h[4:3],
{4}5/4>1[2:1],6,7,8,
1/8<5[2:1],2,3,4,
4/5<8[2:1],3,2,1,
8/1>4[2:1],7,6,5,
5/3h[4:3],4,5,6,
4/6h[4:3],5,4,3,
4/2h[4:3],5,6,7,
5/7h[4:3],4,3,2,
{1}2w6[2:3],
{8},,,,,,,,1-5[8:1],
6,1,7,7,2,7-3[8:1],8,
7,1,1,2,8-4[8:1],3,8,2,
2,7,2-6[8:1],1,2,8,8,7,
1-5[8:1],5-2[8:1],1,7,7,1,7-3[8:1],3-6[8:1],
7,1,1,2,8-4[8:1],4-7[8:1],8,2,
2,8,{4}2>5[16:3],{16}6,7,8,1,2,3,4,5,
{8}1-5[8:1],5-2[8:1],1,7,7,1,7-3[8:1],3-6[8:1],
7,1,1,2,8-4[8:1],4-7[8:1],8,2,
2,8,2-6[8:1],6-3[8:1],2,8,8,7,
1-5[8:1],5-2[8:1],,1h[8:1],,,{4}7/5,
{8}4h[16:1]/5h[16:1],4h[16:1]/5h[16:1],{16}2,4,3,5,{24}2b/4b,,,,,3b/5b,,,,,{12}4b/6b,
,,,{4}1h[1:1]/8h[1:1],,,,,8/1-5[8:1],
1qq3[4:5],
{8},,5,5,{4}5,6,
6,7-3[8:1],{8},1-5[8:1],,1,
{2}8,{4}7<4[4:1],4>1[4:1],
1<6[4:1],6-3[4:1],3-8[4:1],8-5[4:1],
5,2-6[8:1],{8},8-4[8:1],,8,
{2}1,{4}1/8-4[8:1],8pp6[4:5],
{8},,4,4,{4}4,3,
3,{8}2>5[8:1],1,8,7>2[8:1],6,5,
4-8[8:1],,,2>5[16:3],4<7[16:3],6<1[16:3],{4}8>3[16:3],
{8},4-8[8:1],,4,{4}2-7[8:1],2-5[8:1],
2-6[8:1],2,{16},,,,,,2/7,3/6,
{2}4/5,{8}7-3[8:1],8,{4}7b/1h[2:1],
,4<7[4:1],7>2[4:1],2>5[4:1],
5<8[16:3],{16}1,2,3,4,5,6,7,8,1,2,3,4,
7/5,6,5,4,3,2,1,8,{8}2-6[8:1],1,{4}2/8h[2:1],
,5>2[4:1],2<7[4:1],7<4[4:1],
4>1[16:3],{16}8,7,6,5,4,3,2,1,8,7,6,5,
2/4,3,4,5,6,7,8,1,{8}2-6[8:1]*-5[8:1],4,{4}2,
,6>3[4:1],3>8[4:1],8<5[4:1],
5,2h[8:9],{8},4,,,5,
,,6h[8:7],,,{4}8,
{8},,1,2,{2}3<1[4:3],
{4},1>6[4:3],,,6<2[4:3],
,,2>5[4:3],
,,{2}5<7[4:3],
{4},7bw3[4:3],{8},,,,,,,,2-5[8:1],
1,{4}2,
8-3[8:1]*-4[8:1],8<5[4:1],5>2[4:1],2<7[4:1],
7<4[4:1],4>1[4:1],{8}1w5[4:1],5,,,,,1-5[8:1],
8-4[8:1],1,8,{4}1>4[4:1],
4<7[4:1],7>2[4:1],2>5[4:1],5<8[16:3],
8,{16}1,2,3,4,1,2,3,4,5,6,7,8,
1,2,3,4,2,3,4,5,3,4,5,6,{8}7b-3[8:1],1,
7,2-5[8:1],8,2,8b-3[8:1],1,8,2-6[8:1],
8,2,7b-4[8:1],1,7,1-6[8:1],8,1,
7b-4[8:1],8,7,1-5[8:1],7,1,{4}6<1[16:3],
{16}2,3,4,5,2,3,4,5,{4}1b>4[16:3],{16}5,6,7,8,
5,6,7,8,1b,2,3,2,3,2,3,2,3,2,3,2,
{4}3bqq6[8:3]*qq4[8:3],{8},,,,7>2[16:3],1>4[16:3],
3<6[16:3],5<8[16:3],{4}6,1<6[8:1]*>4[8:1],1w5[8:1],
1,3>8[16:3],{16}7,6,5,4,6,5,4,3,
5,4,3,2,4,3,2,1,8,7,6,5,{8}4>1[16:3],2<7[16:3],
8<5[16:3],6>3[16:3],{4}5,2>5[8:1]*<7[8:1],2w6[8:1],
2,{16}2,3,4,5,3,4,5,6,4,5,6,7,
5,6,7,8,1,2,3,4,2,3,4,5,7b,6,5,4,
3,2,1,8,7,6,5,4,1b,2,3,4,5,6,7,8,
1,2,3,4,8b,7,6,5,4,3,2,1,8,7,6,5,
2b,3,4,5,6,7,8,1,2,3,4,5,{4}6-1[8:1]*-2[8:1],
{8}6,,,2,{4}2>5[4:1],5<8[4:1],
8>3[4:1],{16}4,5,6,7,8,5,6,7,8,6,7,8,
1,7,8,1,{24}2,6,5,4,3,2,1,8,7,6,5,4,{16}2b,3,4,5,
8,7,6,5,4,2,4,2,5,3,6,4,6,4,5,3,
5,3,8b,7,6,5,2b,3,4,5,7b,6,5,4,1b,2,
3,8b,7,6,2b,3,4,7b,6,5,{24}1b,2,3,4,5,6,7,8,1,
{16}2b,4,2,4,3b,5,3,5,1b,2,3,4,1b,8,7,6,
1,2,3,4,5,6,{24}8b,7,6,5,4,3,2,1,8,{16}2b,3,4,5,
8,7,6,5,1b,2,3,4,7b,6,5,4,2b,3,4,5,
6,7,2b,3,4,5,6,7,{24}1,2,3,4,5,6,8,7,6,5,4,3,
7/2,6,5,4,3,2,1/6,5,4,3,2,1,{16}8b,2,8,2,6b,4,6,4,
7,6,5,4,1,2,3,4,5,6,5,6,1,8,1,8,
2,3,4,5,8,7,6,5,{24}1b,2,3,4,5,6,8b,7,6,5,4,3,
2,1,8,2b,{48},{16}4,3,5,4,6,2b,4,3,4,2b,5,4,5,
1b,6,5,6,{24}1b,2,3,4,8b,7,6,5,2b,3,4,5,{16}7b,5,7,5,
7,5,2b,8,2,8,2,8,1,2,3,4,7b,2,6,3,
8,1,5,4,{24}1b,2,3,4,5,6,8b,7,6,5,4,3,1b,2,3,8,7,6,
2,3,4,7,6,5,1,2,3,8,7,6,2,3,4,7,6,5,4,5,4,5,3,6,
3,6,3,7,2,7,2,7,1,8,1,8,{32}1,8,7,6,5,4/8,3/7,2/6,{4}5b/1b-5[4:15],
,,,,,,,,,,,,,,,6h[4:15],
,,,5h[4:11],
,,,,,,,,,,,4bw8[4:13],
E
