&title=月明かりの宴
&artist=a_hisa
&first=0
&des=霊風
&lv_5=13+
&inote_5=(130)
{1},
{1},
{1},
{1},
{1},
{4}4/5h[4:7],4,4,4,
{4}4,4,4,4,
{4}3h[2:3]/5,5,5,5,
{4}5,6,7<3[8:1],{12}7/2,2,2,
{12}1/5-8[12:1],,4,5,,3,2h[6:1],8,7,1h[6:1],7,6,
{12}8h[6:1],,6,1-6[12:1],7,3,1-4[12:1],2,5,1,,,
{12}3-6[12:1]/6,,5,3,,7,7/8,1,2,3/8,7,6,
{12}2/5h[6:1],,4,4>1[12:1],5,5,4p8[12:1],6,6,4,,,
{12}6/1-5[12:1],,7,1,,6,7h[6:1],1,2,8h[6:1],2,3,
{12}1h[6:1],,3,8-3[12:1],2,6,8-5[12:1],7,4,8,,,
{12}6-3[12:1]/3,,4,6,,2,2/1,8,7,6/1,2,3,
{12}7/4h[6:1],,5,5<8[12:1],4,4,5q1[12:1],3,3,5,,,
{12}3/8v2[12:1],,,6-8[12:1],,,1v7[12:1],,,3-1[12:1],,,
{4}5<1[4:1],1>5[4:1],5,{12}7,,1,
{12}1>4[12:1]/6,,,5qq3[8:1],,,8<5[12:1],,,8,,2,
{24}2h[4:1],,,,7,6,5h[4:1],,,,3,,4w8[12:1],,,,,,4,,,,,,
{4}2/6<8[12:1],4pp6[8:1],3>1[12:1],5qq3[8:1],
{12}6<2[4:1],,,2qq5[8:3],,3,3h[4:1],,,,,4,
{12}4/6h[6:1],,,5-1[12:1],,3,5<8[12:1]*>2[12:1],,,5,,,
{12}1h[4:1],,7,7h[4:1],,5,5h[4:1],,,4,,3/6,
{12}3/6,,2,8<6[12:1],,3,8-4[12:1],,4,8,,3,
{24}2/5,,,,3,4,3h[6:1],,,,6,,4>1[12:1]/8-4[12:1],,,,,,4/8,,,,5,,
{12}1-7[12:1],,5,1-3[12:1],,5,1<4[6:1],,5,1,,7-1[12:1],
{12}2-4[12:1],,7,2,,8,5>1[8:1]*p1[8:1],,,,,,
{12}7/8,,6,2<8[12:1],,5,2>5[12:1]/5<8[12:1],,,2/5,,,
{24}1h[6:1],,,,2,8,3h[6:1],,,,7,,6-3[12:1]/2v7[12:1],,,,,,2/6,,,,8,,
{12}1/5,2,3,4/7,6,5,3-8[12:1]/4-7[12:1],,,3/4,,,
{12}1/6,7,8,1/2,3,4,5h[4:1]/7h[4:1],,,,,{24}8,7,
{12}4h[4:1]/6,,,3h[4:1],,4,4h[4:1],,,5h[2:1],,{24}2,3,
{12}4,,,6h[4:1],,5,5h[4:1],,,4h[2:1],,{24}7,6,
{12}5,,,3h[4:1],,2,2h[4:1],,,1h[4:1],,,
{12}3V52[6:1],,,3/5h[6:1],,,6q3[12:1],,,6,,{24}1,2,
{12}5h[4:1]/3,,,6h[4:1],,5,5h[4:1],,,4h[2:1],,{24}7,6,
{12}5,,,3h[4:1],,4,4h[4:1],,,5h[4:1],,{24}2,3,
{24}4h[4:1],,,,7,6,5h[4:1],,,,8,7,6h[4:1],,,,1,8,7h[4:1],,,,2,1,
{24}8,,,,1/7,2/6,3/5,,,,2/8,3/7,4v1[12:1]/6v1[12:1],,,,,,4/6,,,,,,
{12}3b/7bp4[4:1],,,4,,3,2q4[4:1],,,5,,6,
{12}7pp4[4:1],,,3h[6:1],,,1-5[12:1],,,1/5,,6,
{12}5/7V16[6:1],,,4,,4-8[12:1],3-1[12:1],,4,3,,{24}7,6,
{12}1>4[12:1]/5,,5,1<6[12:1]/5,,5,1-5[12:1]/5,,,1,,6,
{12}3bq5[4:1]/7b,,,6,,7,8p5[4:1],,,4,,3,
{12}2qq5[4:1],,,6h[6:1],,,8-4[12:1],,,4/8,,3,
{12}2-5[12:1]/5,,,2/7,,1,1-5[12:1]*w5[12:1],,,1,,,
{4}7b-5[12:1]/8b-4[12:1],7b-3[12:1]/8b-2[12:1],7b-5[12:1]/8b-4[12:1],7b/8b,
{12}3,5,1,4,2,3,8V24[12:1]*q4[12:1],,,8,,,
{12}7,6,5-1[12:1],3>3[4:1],,5-2[12:1],3,,,,,,
{12}6,4,8,5,7,6,1V75[12:1]*p5[12:1],,,1,,,
{12}3/4,2,2,3/4,5,5,3<6[12:1]/4>1[12:1],,,,,,
{1}7b>7[4:15]/8bpp3[4:7],
{1},
{1},
{1},
{1}2>8[1:2],
{1},
{1}1pp4[4:7],
{1},
{4}6h[4:3],,,4h[4:1],
{6}7h[6:1],5h[6:1],6h[6:1],3h[6:1],4h[6:1],2h[6:1],
{6}8h[6:1],6h[6:1],4h[6:1],1h[6:1],3h[6:1],5h[6:1],
{12}7h[2:1],,,,6,6,8p1[6:1],,,,,,
{12}2/6,,,4/5,,3,3h[4:1]/5h[4:1],,,,,{24}3,4,
{12}3,,,1/8,,7,7h[4:1]/2h[4:1],,,,,{24}6,5,
{4}7>3[4:1],3>6[4:1],6V83[4:1],3<3[2:1],
{12}1,,,3V57[4:1],,4,4h[4:1],,,,,8,
{12}8/3,,,3,,5,3,,,3,,{24}6,6,
{12}3,,,3,,7,3,,,3,,6,
{12}6h[4:1],,5,5h[4:1],,4,4h[4:1],,3,3h[4:1],,2,
{12}2h[4:1],,1,1h[4:1],,8,8h[4:1],,7,7pp2[4:3],,,
{4},,,5h[4:1],
{48}7b,8,1,2,3,4,5,6,7,,,,{12}3/5,,2-8[12:1],6-2[12:1],,2,6,,7-3[12:1],
{12}4-7[12:1],,7,4,,1,1p4[12:1]/8q5[12:1],,,,,6,
{24}3,8,3,8,3,8,2<7[12:1],,,,7,,2V46[6:1],,,,6,,2,,,,8,,
{24}5,7,5,7,5<8[12:1],7,3-7[12:1],,,,5,,3v1[12:1]*v5[12:1],,,,,,,,,,2,,
{12}4b/6b,,,7/8,,7<4[12:1],8p3[12:1],,7,8,,5p8[12:1],
{12}4>1[12:1],,5,4,,7,7h[4:1]/1-5[12:1],,,,,4/6<1[12:1],
{12}3-6[12:1]/7,,6,3,,2-7[12:1],5>2[12:1],,2,5-1[12:1],,,
{12}5b/4-8[12:1],,,3-7[12:1]/4b,,2,2-6[12:1]/3b,,,1b/2b,,,
{12}8,8,8,3,3,3V17[6:1],5v6[12:1],,,,,,
{12}8/7,6,4,3/2,1,7,5-1[12:1]/6-2[12:1],,,5/6,,,
{12}7,7,7,2,2,2>6[6:1],1qq7[12:1],,,,,,
{12}1>4[12:1]/8,2,2,1/8<5[12:1],7,7,1v4[12:1]*v6[12:1]/8,,,,,,
{12}3/5,4/6,5/7,5/7,4/6,3/5,2h[4:1]/4-6[12:1],,,4,2,3,
{12}4/8q4[8:1],7,6,5qq3[8:1],6,7,8h[4:1],,,2b,,,
{12}6/1,7/2,3/8,1/8,2/7,3/6,4-8[12:1]/5h[4:1],,,4,5,6,
{12}7/1p5[8:1],2,3,4pp6[8:1],3,2,1h[4:1],,,7b,,,
{1}1bpp3[2:3]*<3[2:7],
