&title=我愛メイデン
&artist=羽生まゐご
&first=0.293
&lv_2=2
&des_2=JLKK
&inote_2=
(96){4},,,,,,,,,,,,,,,,{2}6,
6,
6,6,
5,5,
5,5,
4,4,
4,4,
3,3,
3,3bx,
{1}4bxh[1:2]/3bxh[1:2],
{2},,,,,,2,
2,
2,2/1,
1,1,
8,8,
7,7,
7,7/8,
{1}8h[1:1]/7h[1:1],
{2},,8xh[4:1]/1xh[4:1],
8h[4:1]/1h[4:1],
{1}8h[2:1]/1h[2:1],
{2}1,2,
3,4,
5h[4:1]/4h[4:1],5h[4:1]/4h[4:1],
{1}5h[2:1]/4h[2:1],
{2}5,5,
{1}5-8[4:3],
,C,
C,
C,
{2}7,7,
8,8,
1,1,
{1}2h[2:1],
{2}3,3,
4,4,
5/4,5/4,
{1}5b/4b,
{2}5h[4:1]/4h[4:1],5h[4:1]/4h[4:1],
{1}5h[2:1]/4h[2:1],
3x-7[2:1],
6x-2[2:1],
{2}1,1,
1/8,8/1,
8/7,8/7,
{1}7bxh[1:1],
,B8,
B7,
B6,
B5,
B4,
B3,
B2,
{4}1x,1x,{2}1x,
{4}2,2,{2}2,
3,4,
{4}5/4,5/4,{2}5/4,
6,6,
7,8/7,
8,1/8,
1,2/1,
{1}2h[1:1]/1h[1:1],
{2},3,
4,5,
{1}5xh[4:3]/4xh[4:3],
E
&lv_3=5+
&des_3=JLKK
&inote_3=
(96){4},,,,,,,,,,,,{1}5xh[4:3]/4xh[4:3],
{4}5,6,7/8,8/7,
1,2,3/4,4/3,
{2}5h[4:1],6h[4:1],
{4}6x/5x,7x/4x,3x/8x,2bx/1bx,
1,8,{8}1x,1x,{4}8,
8,1,{8}8,8,{4}1,
7,8,{8}7,7,{4}8,
8/7,6/5,4/3,1/2,
{1}2b/1b,
8xh[1:1]/2xh[1:1],
,7xh[2:1]/1xh[2:1],
{4}8,7,6/5,6/5,
4,3,2/1,2/1,
2,1,8,7,
{1}8-3[2:1]/7-4[2:1],
{4}4/3,4/3,{8}3,3,{4}5,
6/5,6/5,{8}6,6,{4}4,
4h[4:1],5h[4:1],6h[4:1],7h[4:3],
8h[2:1],,,8/1,
{16}7/2,,,8x/1x,{4}8x/1x,{16}2/7,,,8x/1x,{4}8x/1x,
{16}7/2,,,1x/8x,{8}1x/8x,7/2,{16}7/2,,,1x/8x,{4}1x/8x,
{2}8h[4:1]/7h[4:1],1h[4:1]/2h[4:1],
8h[4:1]/7h[4:1],6bxh[4:1]/5bxh[4:1],
{16}6/3,,,5x/4x,{4}5x/4x,{16}6/3,,,5x/4x,{4}5x/4x,
6/3,6/3,7/2,2/7,
7/2,E2,E3,E4,
E5,,,5x<4[4:7],
,,,,,,,,,,,,,,,,4x/3x,
2x,{8}4,4,{4}2,
5/6,7,{8}5,5,{4}7,
6/5,6/5,5/4,5/4,
{1}4-8[2:1]/3-7[2:1],
{4}8/7,1,{8}8/7,8/7,{4}1,
1/2,8,{8}2/1,1/2,{4}8,
7,6,5,5/4,
{1}5bh[4:3]/4bh[4:3],
{16}5/4,,,6x/3x,{4}6x/3x,{16}5/4,,,6x/3x,{4}6x/3x,
{16}5/4,,,6x/3x,{8}6x/3x,5/4,{16}4/5,,,6x/3x,{4}6x/3x,
5/4,5/4,3/6,6/3,
7/2,2/7,1/8,1/8,
{2}8h[4:1],1h[4:1],
7h[4:1],2h[4:1],
6h[4:1],3h[4:1],
{1}5bh[1:1]/4bh[1:1],
{2},E6,
E7,E8,
E1,E2,
{1}3x-8[2:1],
{2}B7,B6,
B5,B4,
B2/E3,B8/B1,
{1}E1/B8/B1,
{16}7/2,,,1x/8x,{4}1x/8x,{16}7/2,,,1x/8x,{4}1x/8x,
{16}2/7,,,8x/1x,{8}8x/1x,2/7,{16}2/7,,,8x/1x,{4}8x/1x,
1xh[4:1],8h[4:1],7h[4:1],6h[4:1],
5h[4:1],4h[4:1],3h[4:1],2,
{16}1,,,1x,{4}1x,{16}1,,,1x,{4}1x,
{16}8,,,8x,{4}8x,{2}8xh[4:1],
{16}7,,,7x,{4}7x,{2}7xh[4:1],
{4}6/5,5/4,4/5,4/3,
{2}3h[4:1]/6h[4:1],3bh[4:1]/6bh[4:1],
{1}6-1[2:1]/3-8[2:1],
{2},Cfh[4:5],
E
&lv_4=9
&des_4=JLKK
&inote_4=
(96){4},,,,,,,,,,,,,,,,4x/3x,
2,{8}3/4,3/4,{4}2,
5/6,7,{8}6/5,6/5,{4}7,
5h[8:1]/4h[8:1],{8}2,1,{4}5h[8:1]/4h[8:1],{8}7,8,
{4}7-4[8:1],1-6-2-5[8:3],,,7h[8:1]/5h[8:1],
{8}7/5,6,{4}5h[4:1],4,
2h[8:1]/4h[8:1],{8}2/4,3,{4}4h[4:1],5,
{2}5-8[8:1]*-2[8:1],{8}2,2,{4}1,
{2}4-1[8:1]*-7[8:1],{8}8,8,{4}8h[4:1],
1bh[4:7],B8,B7,B6,
B5,B4,B3,{8}B2,8x,
{4}8xh[4:7],B1,B2,B3,
B4,B5,B6,B7,
{2}8xh[4:1]/6xh[4:1],{8}7,8,{4}8/1,
{2}1h[4:1]/3h[4:1],{8}2,1,{4}1/8,
6<1[4:1],{8}4,3,{4}2<7[4:1],{8}5,5,
{4}6h[4:1],2h[4:1],5h[4:1],4b,
5/6,5/8,{8}4/3,4/3,{4}4/1,
{2}7-4[8:1]/2-5[8:1],6-4[8:1]/3-5[8:1],
3h[4:1]/4<8[2:1],2xh[4:1],
{4}1bh[2:1]/8bh[2:1],,,2,
{16}3/4h[4:1],,,1x,{4}1x,{16}4/5h[4:1],,,2,{4}2,
{16}5/6h[4:3],,,3,{8}3,2x,{16}4x,,,3,{4}3,
8<5[8:1],{8}2,2,{4}1>4[8:1],{8}7,7,
{2}7-3[8:1]/1-5[8:1],6<8[8:1]/2>4[8:1],
{4}5h[8:1]/1h[8:1],4h[8:1]/8h[8:1],7h[8:1]/3h[8:1],6/2,
1h[8:1]/5h[8:1],6h[8:1]/2h[8:1],7h[8:1]/3h[8:1],8-5[8:1]/4-1[8:1],
{8},,7/8,8/7,{4}6/1,{8}4/3,4/3,
{4}2/5,E2/E6,E1/E7,8/7>6[4:15],
{2}B1,B8,
B7,B6,
B5,B4,
B3,B2,
{8}5/3,5/3,{4}4/6,{8}5/3,3/5,{4}7/4,
{8}4/6h[4:1],4,{4}2,{8}4/5h[4:1],4,{4}2,
{8}4/2,3,7/5,6,5/3,4,{4}4h[8:1]/5h[8:1],
6h[8:1]/3h[8:1],2h[8:1]/7h[8:1],{2}8-4[8:1]/1-5[8:1],
{8}6-2[8:1],5,{4}4,{8}3-7[8:1],4,{4}5,
5<8<5[2:1],{8}4,3,E4,B3,{4}2x,
1-6[8:1],{8}8x,8x,{4}8-4[8:1],{8}3,3,
{4}2h[8:1],1h[8:1],8h[8:1],7,
{16}4/6h[4:1],,,3x,{4}3x,{16}5/6h[4:1],,,3,{4}3,
{16}4/5h[4:3],,,1,{8}1,2,{16}3,,,8,{4}8,
6>3[4:1],{8}1,1,{4}2<7[4:1],{8}5,5,
{4}6bh[4:1],4w8b[4:1],{16},,,,,,,,1/2h[4:1],
,,8,{4}8,{16}8/1h[4:1],,,7,{4}7,
{16}6/8h[4:1],,,7,{8}7,7,{4}8h[4:1],6h[4:1],
4h[4:1],{8}7,5,{4}6,{8}2,4,
{4}3b,5b,8b,1b/2b<3[1:3],
B8,B8,{2}B8,
{4}B7,B7,{2}B7,
E2/B2/B1,C,
5h[4:3],{4}4,4>5[2:7],
B6,E7,{2}B7,
{4}B3,B3,{2}B3,
E1/B8/B1,C,
{4}B4/E4/B3,,,4/3,
{16}5/3h[4:1],,,7,{8}7,6,{16}5/6h[4:1],,,2,{8}2,3,
{16}4/3h[4:1],,,8,{8}8,7,{2}6v3[8:1]/5v2[8:1],
{8}2x/4x,1x,3x/4x,1x,4/2,8,3/5,8,
5/4,1,5/3,1,5/6h[4:1],2,{4}2,
{16}7/4h[4:1],,,7,{8}7,6,{16}3/5h[4:1],,,2,{4}2,
1-4[8:1],8-5[8:1],{8}1,1,{4}2,
2-7[8:1],6-3[8:1],{8}2,2,{4}1,
6<8[8:1],{8}2,2,{2}3>1[8:1],
8-3[8:1]/7-3[8:1],1-6[8:1]/2-6[8:1],
{1}5w1[4:3],
{4},B7,B5,B3,
4/3,4/5,{2}6<1[8:1]/4>1[8:1],
E
&lv_5=11+
&des_5=JLKK
&inote_5=
(96){4},,,,,,,,,,,,8x/1x,
2x/7x,6x/3x,5b/4b,
3/4h[2:1],B3,{8}3h[4:1],7x,{4}7x,
6/5h[2:1],B6,{8}6h[4:1],2,{4}2,
4/3,{8}2,1,3/4,5,{4}5<1[4:1],
1>5[4:1],5,{2}1xh[4:1],
{4}4/2h[4:1],{8}1,{16}7x,8x,7x,8x,{8}1x,{4}1x,
5/7h[4:1],{8}8,{16}2,1,2,1,{8}8,{4}8,
{8}4h[4:1]/1h[4:1],,,3-6[8:1]/2-7[8:1],{2}3/2,
{4}4>1[8:1],5<8[8:1],4-8[8:1],5x<4[4:3],
{8},,,,,,,,7>8v3<5[2:1],
,,,,,,6,
{1}6p3[2:1],
{4}B8/B3,E2/B1/B2,2-5[8:1]/1-5[8:1],2x/1x,
7h[4:1],5,{8}4,5,{4}6/7,
2h[4:1],4,{8}5,4,{4}3/2,
1h[4:1],8,{8}7,8,1,8,
{4}7-3[8:1],1-5[8:1],{2}6-2[8:1],
{4}2h[4:1],7,{8}5,6,{4}7/8,
7h[4:1],2,{8}4,3,{4}2/1,
2h[4:1],1h[4:1],8h[4:1],7-2-5-8b[2:1],
Cf,,,5x-8[8:1],
6xh[4:1],4-1[8:1],3h[4:1],5-8[8:1],
6xh[4:1],4-1[8:1],{2}3h[4:1],
{16}7h[4:1],,,5,5h[4:1],,,4,4h[4:1],,,2,{8}2,1,
{4}8-4[8:1],8x,7-3[8:1]/1-5[8:1],7/1,
6h[4:1],{8}1,5,{4}5h[4:1],1,
{16}6h[4:1],,,1,{8}1,2,{4}5h[8:1]/3h[8:1],5h[8:1]/4h[8:1],
6/5,{8}7/4,8/3,{4}2b/1b,{8}5/2,1/6,
{1}7bqq4[2:1]/8bpp3[2:1],
{4}Cf,3,{8}4,2,{4}2/B1,
5,6,{8}5,7,{4}7/B8,
3,1/2,{8}4,4,{4}1/B8,
5pp4[2:1],B3,B1,B7,
4h[4:1],8,{8}8/2,{16}1x,8x,{4}1x,
5h[4:1],1,{8}1/7,{16}8,1,{4}8,
5/6h[4:1],{8}4,4,{4}4/3h[4:1],{8}5,5,
{4}5-1[8:1]/6-1[8:1],6x/5x,2v5[8:1]/8v5[8:1],8/2,
{8}3/4h[8:3],3,2,2,{4}5xh[4:1]/1-6[8:1],1,
{8}6/5h[8:3],6,7,7,{4}4xh[4:1]/8-3[8:1],8,
{16}2,1,{8}2,3,4,5/6,5/6,{4}5/7h[4:1],
8b,1b,2b,3b-1[8:1]/7b-1[8:1],
7/3,3-1[8:1]/7-1[8:1],7/3,8-4[8:1],
7h[4:1],1-5[8:1],{2}2h[4:1],
{16}3h[4:1],,,4,4h[4:1],,,5,5h[4:1],,,6,{8}6h[4:1],8x,
{4}8x-4[8:1],8,3v8[8:1]/5v8[8:1],5/3,
6h[4:1],{8}1,5,{4}5h[4:1],{16}1,,,6,
6h[4:1],,,5,5h[4:1],,,4,{4}4h[4:1],2,
{2}1-4[8:1]/8-5[8:1],1-5[8:1]/8-4[8:1],
{1}1>8[2:1]/8<1[2:1],
{16}5,6,5,6,{8}5,{16}6,5,7x,7x,{8}8x,{4}8x,
{16}4,3,4,3,{8}4,{16}3,4,2x,2x,{8}1x,{4}1x,
{16}7,5,7,5,{8}7,{16}5,5,6,6,{8}4,{4}4h[4:1],
5<1[4:1],1>5[4:1],5,1,
{16}8,7,8,7,{8}8,{16}6,6,5x,5x,{8}4x,{4}4x,
{16}1,2,1,2,{8}1,{16}3,3,4x,4x,{8}5x,{4}5x,
7-5[8:1]/1-5[8:1],1/7,7-3[8:1]/1-3[8:1],1/7,
B7/E7/B6/Cf/B2/B3/E3,,,5-8[8:1],
6h[4:1],4-1[8:1],3h[4:1],5-8[8:1],
6h[4:1],4-1[8:1],{2}3h[4:1],
{16}8h[4:1],,,6,6h[4:1],,,4,4h[4:1],,,2,{8}2h[4:1],1,
{4}1-5[8:1],1x,5v8[8:1]/3v8[8:1],3/5,
2h[4:1],{8}8,3,{4}3h[4:1],{16}8,,,4,
4h[4:1],,,5,5h[4:1],,,4,{4}4h[4:1],{16}6b,,,5,
5h[4:1],,,3,3h[4:1],,,7,{4}7h[4:1],{16}1b,,,7,
8,,,2,1,,,3,4,,,4,5,,,5,
{4}6bh[4:3],5-2[8:1],,1w5[1:1],
,,,,,B5/E5,
B6/E7,B7/B8,
8h[4:3],,,1b,
E
&lv_6=13+
&des_6=JLKK
&inote_6=
(96){4},,,,,,,,,,,,{1}5xw1[2:1],
{4}3b-1[8:1],4-8[8:1],3-1[8:1],4-8[8:1],
6b-8[8:1],5-1[8:1],6-8[8:1],5-1[8:1],
3b-1[8:1],4-8[8:1],3-1[8:1],4<8[4:1],
8>4[4:1],4<8[4:1],{2}8-4[8:1],
{4}3b-7[8:1],4-8[8:1],{2}5-1[8:1],
{4}6b-2[8:1],5-1[8:1],{2}4-8[8:1],
3-1[8:1]*-7[8:1],6-8[8:1]*-2[8:1],
{4}4>2[8:1]/5-1[8:1],4-8[8:1]/5<7[8:1],4>2[8:1]/5-1[8:1],5b<4[4:3]/4b>5[4:3],
,,,,4>1[8:1]/5<8[8:1],
4q8[4:1]*p8[4:1],,,{1}8b<1[2:1]/1b>8[2:1],
{8}8-4[8:1],1-5[8:1],8<5[8:1],1>4[8:1],{2}8w4[8:1],
{4}2b-4[8:1],1-5[8:1],2-4[8:1],1-5[8:1],
7b-5[8:1],8-4[8:1],7-5[8:1],8-4[8:1],
3b-1[8:1],6-8[8:1],3-1[8:1],3<7[4:1],
7>3[4:1],3<7[4:1],{2}7-3[8:1],
{4}2b-6[8:1],1-5[8:1],{2}8-4[8:1],
{4}7b-3[8:1],8-4[8:1],{2}1-5[8:1],
7<4[8:1]*p3[8:1],{4}2-6[8:1],2V85[2:1]*V47[2:1],
,,,8x<5[8:1]/5x>2[8:1],
5b-1[8:1]/8b-4[8:1],8<5[8:1]/5>2[8:1],5-1[8:1]/8-4[8:1],8<5[8:1]/5>2[8:1],
5b-1[8:1]/8b-4[8:1],8<5[8:1]/5>2[8:1],{2}8w4[8:1],
{4}6-8[8:1]/5-8[8:1],6-3[8:1]/5-3[8:1],,4v2[8:1]/8v6[8:1],
4v3[8:1]/8v7[8:1],4v1[8:1]/8v5[8:1],,1x>4[8:1]/4x<7[8:1],
4b-8[8:1]/1b-5[8:1],1>4[8:1]/4<7[8:1],4-8[8:1]/1-5[8:1],1>4[8:1]/4<7[8:1],
4b-8[8:1]/1b-5[8:1],1>4[8:1]/4<7[8:1],{2}1w5[8:1],
{4}7>1[4:1],1-5[4:1],5>3[4:1],3>6[2:1],
,,,,7<5[8:1],
2>4[8:1],7<5[8:1],2>4[8:1],
7<5[8:1],2>4[8:1],7<5[8:1],3>1[8:1],
6<8[8:1],3>1[8:1],6<8[8:1],3>1[8:1],
6b<8[8:1]*>4[8:1],6bs2[4:1],,,3b-1[8:1],
4-8[8:1],3-1[8:1],4-8[8:1],
6b-8[8:1],5-1[8:1],6-8[8:1],5-1[8:1],
3b-1[8:1],4-8[8:1],3-1[8:1],4V68[4:1],
8<4[4:1],4V28[4:1],{2}8-4[8:1],
{4}7b-3[8:1],8-4[8:1],{2}1-5[8:1],
{4}2b-6[8:1],1-5[8:1],{2}8-4[8:1],
5-1[8:1]*-8[8:1],4-8[8:1]*-1[8:1],
{4}6V84[4:1]/2V84[4:1],,,5<8[8:1]/8>3[8:1],
8b-4[8:1]/5b-1[8:1],5<8[8:1]/8>3[8:1],8-4[8:1]/5-1[8:1],5<8[8:1]/8>3[8:1],
8b-4[8:1]/5b-1[8:1],5<8[8:1]/8>3[8:1],{2}5w1[8:1],
{4}2-7[8:1],6-3[8:1],,6>4[8:1]/2<8[8:1],
6v4[8:1]/2v8[8:1],6<8[8:1]/2>4[8:1],,4>1[8:1]/1<6[8:1],
1b-5[8:1]/4b-8[8:1],4>1[8:1]/1<6[8:1],1-5[8:1]/4-8[8:1],4>1[8:1]/1<6[8:1],
1b-5[8:1]/4b-8[8:1],4>1[8:1]/1<6[8:1],{2}4w8[8:1],
{4}7-2[4:1],2-4[4:1],4-1[4:1],1-5[4:1],
{1}5<4[2:1]*-8[4:1],
{4}7-4[8:1],8-4[8:1],1-4[8:1],2-4[8:1],
1-4[8:1],8-4[8:1],7-4[8:1],8-4[8:1],
1-4[8:1],2-4[8:1],1-4[8:1],7>2<7>2[4:3],
,,,7-5[8:1],
8-5[8:1],1-5[8:1],2-5[8:1],1-5[8:1],
8-5[8:1],7-5[8:1],8-5[8:1],1-4[8:1],
,1-5[8:1],{64},,,,,,,,,,,,,,,,8bx-5[2:1],1x-5[64:31],{32}2x-5[32:15],{4},,,{16},,,{4}7<4[8:1]/3>8[8:1],
3bv1[8:1]/7bv1[8:1],7>2[8:1]/3<6[8:1],7v5[8:1]/3v5[8:1],7<4[8:1]/3>8[8:1],
7bv1[8:1]/3bv1[8:1],7>2[8:1]/3<6[8:1],{2}7v5[8:1]/3v5[8:1],
{4}6<8[8:1]/3v8[8:1],6v1[8:1]/3>1[8:1],6<8[8:1]/3v8[8:1],6v1[8:1]/3>1[8:1],
,8-5[8:1]/1-4[8:1],,2>5[8:1]/6<1[8:1],
2bv8[8:1]/6bv8[8:1],2>5[8:1]/6<1[8:1],2v4[8:1]/6v4[8:1],2<7[8:1]/6>3[8:1],
6bv8[8:1]/2bv8[8:1],2<7[8:1]/6>3[8:1],2v4[8:1]/6v4[8:1],2>5[8:1]/6<1[8:1],
2bv8[8:1]/6bv8[8:1],2>5[8:1]/6<1[8:1],2v4[8:1]/6v4[8:1],2<7[8:1]/6>3[8:1],
6bv8[8:1]/2bv8[8:1],2<7[8:1]/6>3[8:1],2v4[8:1]/6v4[8:1],6<1[8:1]/2>5[8:1],
D3f/D7f/6bp2[8:1]/2bp6[8:1],6b<1[8:1]/2b>5[8:1],D7f/D3f/6bp2[8:1]/2bp6[8:1],6bpp6qq6b[1:1],
{8},,,,,,,,,,,,,,2-6[8:1]/6-2[8:1],
7-3[8:1]/3-7[8:1],
{4}6>7[2:1],,,C,
E
&lv_7=1
&des_7=
&inote_7=
(96)
E
