&title=Realize (long cut ver.)
&artist=鈴木このみ/TVアニメ「Re:ゼロから始める異世界生活2nd season」前半クールOPテーマ
&first=1.16
&des_5=Ragna
&lv_5=13+
&des=Ragna
&wholebpm=206
&demo_seek=56.4
&demo_len=25.5
&inote_5=(206){2}
1w5[14.714#112:1]*w5[14.714#112:1],,
,,
,,
,1b,{8}
2q6[4:1],,,7p3[4:1],,,1>8[16:11],,
,,,,,,,,
6q2[4:1],,,3p7[4:1],,,5<4[16:11],,
,,,,,,,,
2^7[4:1],,,6q3[4:1],,,4q5[16:11],,
,,,,,,,,
46,4/6-1[8:1],,6/2-6[8:1],,8w4[8:1]/2,,8,
,,4bz8[4:1]/5bs1[4:1],,,,,,{1}
8-5[19:17]/1q4[8:16],
,
5q8[8:16],
,
1q4[8:16]*-4[19:17],
,
5-8[8:5],
{8}1,8,27,,{16}1,2,3,4,5,6,7,8,{8}
15,,3,4,2,2-6[8:1],,8h[8:3],
,,5^2[8:1],,7,7-3[8:1],,1h[8:3],
,,4^7[8:1],3,2,1s5[32:9],,8,
,,,,7-3[8:1]/3,,1h[4:1],,
4-7[8:1],4,3h[4:1],,8-5[8:1],8,1h[4:1],,
4>5[8:3],,,,,4,3,2,
18,8-3[8:1]/1,,1-6[8:1]/8,,1p4[8:1]/8q5[8:1],,18,
,,36,,27,,18,,
2-4[4:1],,4q5[2:1],,5,,6,,
7-5[4:1],,5p4[2:1],,4,,3,,
2^4[4:1],,4qq5[2:1],,5,,6,,
7^5[4:1],,5pp4[2:1],,4,,3,,
1-3[4:1],,3q6[2:1],,6,,7,,
8-6[4:1],,6p3[2:1],,3,,2,,
1^3[4:1],,3qq6[2:1],,6,,7,,
8^6[4:1],,6pp3[2:1],,3,,2,,{2}
1w5[14.714#112:1]*w5[14.714#112:1],,
,,
,,
,1b,{4}
45,6h[8:1]/5h[8:1],7h[8:1]/6h[8:1],7h[8:1]/8h[8:1],
1h[8:1]/8h[8:1],1h[8:1]/2h[8:1],2h[8:1]/3h[8:1],4h[8:1]/3h[8:1],
45,7h[8:1]/5h[8:1],1h[8:1]/8h[8:1],4h[8:1]/2h[8:1],
45,8h[8:1]/6h[8:1],3h[8:1]/1h[8:1],45,{8}
62,5,4,73,4,5,61,5,
4,38,4,5,2-8[8:1]/7-1[8:1],,27,,
2-5[8:1],7-4[8:1],2,7,1-5[8:1],8-4[8:1],1,8,
,,,,{24}18,27,36,{8}4q5[32:13]/5<4[32:13],,4b/5b,
,,,,6V82[4:1],,63,,
5V38[4:1],,58,,7-3[8:1],,1,1-6[8:1],
,4,4-8[8:1],,1,,2-6[8:1]/7,7,
7,7,5^2[8:1]/7,7,7,7,,8-4[8:1]/1,
,3,3-6[8:1],,5,,7-4[8:1],8-3[8:1],
7,8V64[8:1],,8V24[8:1],,8,,6-2[8:1],
,3,3-8[8:1],,7,7^4[8:1],,2h[4:1],
,1,38,,{24}18,27,36,{8}4>5[32:13]/5pp4[32:13],,4b/5b,
,,,,3V51[4:1],,38,,
6V83[4:1],,62,,4-8[8:1],,5,5-3[8:1],
,2,2-6[8:1],,7,,8V64[4:1],,
4V28[4:1],,8V64[4:1],,4V28[4:1],,8,,
4V26[4:1],,6-8[8:1],6,,,5V73[4:1],,
3-1[8:1],3,,,4h[4:1],,7h[4:1],,
2-5[8:1],1,28,,6-4[8:1],8,61,,
2v5[8:1],1,28,,7-3[8:1],8,71,,
2,1,38,4,5,36,7,8,
16,5,4,37,2,1,48,,
18,27,36,45,36,27,18,,
,,,,,,8w4[8:1],,
8bp5[8:9]*p5[8:9],,,,,,4,4,
4,4h[8:3],,,,,7w3[8:1],,
7bp4[8:9]*p4[8:9],,,,,,3,3,
3,3h[8:3],,,,,1w5[8:1],,
1bp6[8:9]*p6[8:9],,,,,,4,4,
4,4h[8:3],,,,,5w1[8:1],,
5bq8[1:1]*q8[1:1],,,,,,1,1,
1s5[8:5],1,,,,,,,
8V64[4:1],,,2V86[4:1],,,4>5[16:11],,
,,,,,,,,
1V35[4:1],,,7V13[4:1],,,5<4[16:11],,
,,,,,,,,
5q2[4:1],,,3q8[4:1],,,1q4[16:11],,
,,,,,,,,
1^4[4:1],,,6^1[4:1],,,3^6[4:1],,
,8^3[4:1],,,5^8[4:1],,4,,{1}
1bw5[10.564#156:1]*w5[10.564#156:1],
,
,
,{8}
,,,,,,,1,{1}
,
,{32}
4,5,,,{8},,,,,,,
5,,,,3,,,{32}5,4,,,{8}
,,,,,,6,,
5,,4,,3,,,{32}4,5h[32:19],,,{8}
,,,,,,3,,
4,,5,,6,,,{32}5V36[1:1],4h[32:31],,,{8}
,,,,,,,,
,,,,4,,5,,
3-6[8:11]*-6[8:11]/4,,,,5,,,,
7,,,,8h[8:3],,,5pp1[8:12]*qq5[8:12],
,,,,,,,,
,,,,,,,,
8^5[4:3]*^5[4:3]/4,,,,,,,,
1^4[4:3]*^4[4:3],,,,,,,,
6h[2:1],,,,5h[2:1],,,,
4h[2:1],,,,3h[2:1],,,,
5qq5[4:5]*pp4[4:5],,,,,,,,
,,,,,,,,
3h/4,,,4/5h,,,6h/5p2[1:1]*p2[1:1],,
,,,,,,,,
,,,,,,,,
,,,,,,,{32}1b/8b,7s3[32:42]*s3[32:42]/2,36,5V37[32:41]/4,{8}
,,,,,,,,
,,,,,,,1w5[31.692#52:1]*w5[31.692#52:1]/5,
,37,37,,,,,,
,,,,1b,,,3-6[8:1]/7,
,8,8-4[8:1],,1,,2-4[8:1],5-7[8:1],
2,5V31[8:1],,5V71[8:1],,5,,4-1[8:1],
,7,7-4[8:1],,8,8^3[8:1],,5h[4:1],
,4,27,,{24}18,27,36,{8}4qq4[32:13]/5<4[32:13],,4b/5b,
,,,,6V47[4:1],,61,,
3V51[4:1],,38,,7v4[8:1],,3,3-8[8:1],
,5,5-1[8:1],,2,,3<7[4:1],,
7>7[2:1],,8,,7>3[4:1],,8,,
6V47[4:1],,7-1[8:1],7,,,3V52[4:1],,
2-8[8:1],2,,6,6-4[8:1],,16,,
3-8[8:1],5,36,,5-1[8:1],4,35,,
2-8[8:1],4,25,,6-1[8:1],5,64,,
2v5[8:1],7,2,8-4[8:1],3,8,1^4[8:1],5,
1,7p3[8:1],5,7,1w5[8:1],,1,,
3b/7b,,,1b/5b,,,3b/8b,,
,,,,,1h[16:1]/8h[16:1],7b/2b,,
4h[4:1],5h[4:1],,3h[4:1],4h[4:1],,5h[4:1],6h[4:1],
,4h[4:1],5h[4:1],,3-8[8:1],4-7[8:1],3,4,
1h[4:1],8h[4:1],,2h[4:1],1h[4:1],,8h[4:1],7h[4:1],
,1h[4:1],8h[4:1],,{16}2,3,4,5,1,8,7,6,{8}
4h[4:1],5,5,3h[4:1],4,4,5h[4:1],6,
6,1h[4:1],8,8,{16}2,3,4,5,8,7,6,5,
3h[4:1],,,,4,5,6,7,{8}1,8w4[8:1]/1w5[8:1],,1b/8b,
{1},E
