&title=凛として咲く花の如く
&artist=紅色リトマス
&first=0
&des=布衣
&lv_5=13
&des_5=布衣
&inote_5=
(163){4},{8}1/2,{16}4,5,{8}4,8/7,6,4/5,
3,2/1,{16}7,8,7,8,{8}7,1,4/3,5,
2h[4:1],{16},,,,1,2,{8}1,4/5,{16},,1,8,
2,7,1,8,{8}2-5[8:1],2,7-4[8:1],7,1<6[8:1]*>4[8:1],1,
{4}1,{8}5-1[8:1],6,7/5,8,2-6[8:1],1,
{4}2b,{8}7<4[8:1],7,3>8[8:1],3,5-8[8:1]*-2[8:1],5,
{4}5,{8}1,2h[4:1],8,7,6-1[8:1]/2-5[8:1],3/7,
{4}6b/2b,{8}8-4[8:1],8,1-5[8:1],1,8>3[8:1]*<5[8:1],8,
{4}8,{8}4-8[8:1],3,2/4,1,7-3[8:1],1,
{4}7b,{8}2>5[8:1],2,6<1[8:1],6,4-1[8:1]*-7[8:1],4,
{4}4,{8}8,7h[4:1],2,4,{4}1h[4:1],
{8}4,3,{4}2/8<5[2:1],2,2,
2,2/5s1[2:1],2,2,
2,3/1q6[2:1],3,3,
3,3/6q7[2:1],3,3,
3,7/1>4[2:1],7,7,
7,7/4z8[2:1],7,7,
7,6/8p3[2:1],6,6,
6,6/3p2[2:1],6,6,
6,{8}5/6,{16}3,4,{8}3-8[8:1],2/5,{4}3/4-7[8:1],
4b,{8}4/3,{16}6,5,{8}6-1[8:1],7/4,{4}6/5-2[8:1],
5b,1h[4:1],2h[4:1],3h[4:1],
{8}4,5,{4}6-1[8:1]/1-6[8:1],1V73[16:5]/6V83[16:5],6/1,
,1>4[4:1],4q1[4:1],1>4[4:1],
4-8[4:1],8<5[4:1],5p8[4:1],8<5[4:1],
5p8[4:1],8,7,6,
{8}5/4,3,{4}2-6[8:1],,4/7,
6-2[8:1]/5-1[8:1],5b/6b,{8}4-8[8:1]/3-7[8:1],5/2,{4}4b/3b,
{8}1v6[8:1],2>5[8:1],1,2,7p3[8:1]*<3[8:1],8,{4}7,
{8}2h[4:1],1,{4}8,{8}7/8,6,5/4,3,
2/1V36[2:1],8/1,{4}7,{8}7,7,{4}7,
{8}8-4[8:1]/7-3[8:1],1/6,{4}7b/8b,{8}1-5[8:1]/2-6[8:1],8/3,{4}1b/2b,
{8}8v3[8:1],7<4[8:1],8,7,2p6[8:1],5,{4}2b,
{8}5,6,{4}8/7,{8}4,3,{4}2/1,
{8}6,7,8,1/8,1/8,2/7,2/7,3/6,
3/6,4/5,{16}4,5,4,5,4,5,4,5,4,5,{8}4,
5-8[8:1]/4-1[8:1],3/6,{4}5/4,{16}2h[16:3],,,1,,,,,8-4[8:1],
7,1,6,{4}8,{16}5h[16:3],,,3,,,4-8[8:1],3,
5,2,{8}4,{4}1h[4:1],7h[4:1],{8}1-5[8:1],{16}8,2,
{8}1,3,{4}4h[4:1],5h[4:1],{8}6<2[2:1],5,
{2}4b/6b,{4}4,{16}4,5,4,5,
{4}4,{8}7-4[8:1],8,2-5[8:1],1,8w4[8:1],8,
{4}8,{16}2-6[8:1],1,2,1,{8}2,8,7-3[8:1],4,
{4}3/7b,{8}2>5[8:1],3,6<1[8:1],7,4-1[8:1]*-7[8:1],4,
{4}4,{16}2-6[8:1],1,2,1,{8}2,8,{4}7-4[8:1]/3-8[8:1],
7b/3b,{8}1-5[8:1],2,8-4[8:1],7,1w5[8:1],1,
{4}1,{16}7-3[8:1],8,7,8,{8}7,1,2-6[8:1],5,
{4}6/2b,{8}7<4[8:1],6,3>8[8:1],2,5-8[8:1]*-2[8:1],5,
{4}5,{16}7-3[8:1],8,7,8,{8}7,1,{4}1>4[4:1],
{16}4,5,6,7,{4}8,1h[4:1],2,
2h[4:1],3,3h[4:1],4,
4h[4:1],8,8h[4:1],7,
7h[4:1],6,6h[4:1],5,
5,4-2[4:1],5,6-4[4:1],
7,8-6[4:1],1,2-8[4:1],
3,5-3[4:1],6,7-5[4:1],
8,1-7[4:1],2,3,
4,7>2[2:1]/3p6[2:1],,,,5-8[2:1]/4-1[2:1],
,,,1-5[8:1],
1/7-4[8:1],7/2-5[16:1],
{8}2/8-4[8:1],1,{4}8/2-6[8:1],2/1-5[8:1],1/8-4[8:1],
8,5pp7[8:1],4/5qq3[8:1],6/5,
,4qq2[8:1],5/4pp6[8:1],3/4,
,1<3[16:5]*>7[16:5],{2}1,
{8}5qq4[16:3]*pp6[16:3],6/4,{4}5,,2/5,
3-8[8:1]/4-7[8:1],4b/3b,{8}6-1[8:1]/5-2[8:1],4/7,{4}5b/6b,
{8}8v3[8:1],7<4[8:1],8,7,2q6[8:1]*>6[8:1],1,{4}2,
{8}7h[4:1],8,5,4,4/3,2,5/6,7,
8/1V74[2:1],2/1,3,3,3,2,{4}1,
{8}2-5[8:1]/1-6[8:1],8/3,{4}2b/1b,{8}7-4[8:1]/8-3[8:1],1/6,{4}8b/7b,
{8}1v6[8:1],2>5[8:1],1,2,7q3[8:1],4,{4}7b,
{8}4,3/6,7,1/2,5,6/3,2,8/7,
1,2,3/6,5/4,5/4,6/3,6/3,7/2,
{4}2/8-4[8:1],2/8-6[8:1],{8}3/8-4[8:1],3,{4}3/8-6[8:1],
{8}3/8-4[8:1],3,2/8-6[8:1],2,1/8-4[8:1],1,{4}8/1-5[8:1],
{8}7/1-3[8:1],7,{4}7/1-5[8:1],{8}6/1-3[8:1],6,7/1-5[8:1],7,
8/1-3[8:1],8,7/1-5[8:1],7,6/1-3[8:1],7,{4}1/8,
{8}7/8,6,{4}5/1,{8}2/1,3,{4}4/8,
{8}8,1,2/4,8,5/7,6/4,{4}3/5,
{8}7-4[8:1]/8-4[8:1],1,{4}8/7,{8}2-5[8:1]/1-5[8:1],8,{4}1/2,
{8}1/8,2/7,1-5[8:1],1,8-4[8:1],8,2-5[8:1],2,
7-4[8:1],7,2-6[8:1],2,1-5[8:1],1,8-4[8:1],8,
7-3[8:1],7,{4}5b<3[8:5],
E
