&title=远枫
&artist=himmel
&first=0
&des=尘落南丘
&lv_5=11+
&inote_5=(135)
{1},
{8}8x<4[8:3],,,4xp3[8:5],,,,,3x>6[2:1],,,,,,,,
{8}4x>8[8:3],,,8xp6[8:5],,,,,6xp1[4:1],,,C,,
{16}4,,53,,4,5,{8}4,34,5,6h[4:1]/5h[4:1],,,
{8}3h[4:1],,5,6h[2:1],,4h[4:1],,,
{8}5x-8[8:1],4h[4:1],,,1xv6[8:1],7h[4:1],,,5x>6[4:3],3h[8:7],
{1},
{8}5h[8:7],,,2,2,,4,4>1[4:1],,,,,6h[4:1],,5h[4:1],,4h[8:7],,,2,2,,7,7q2[2:1],
{1},
{8}6h[8:7],,,4,4,,2,2<7[4:1],,,,,5h[4:1],,3h[2:1],,8p5[2:1],,,C,,,,,5h[4:1]/8q3[2:1],,,C,,,,,
{8}6h[8:7]/5h[4:1],,,2,4,,2,8,1h[4:1]/5,,,,
{8}38,2,47,6,3h[4:1]/5h[4:1],,,6,8h[4:1]/1,,1,3h[8:3]/7h[8:3],,,,,
{8}5h[4:1],,4h[4:1],,3h[4:1],,,2,2,5,6,5/7-4[4:1]*-3[16:3],,,,,
{8}6<2[4:1],,2<6[4:1],,3,4,5,4h[8:1],5pp8[2:1],,4,,3,,
{8}2b,,15,,37,,4>8[4:1]/6h[4:1],,,5,5,,7,7,8x-3[4:1]/6xh[4:1],,,5,
{8}5,,62,,5<1[4:1]/3h[4:1],,,4,4,,2,2,1x-6[4:1]/3xh[4:1],,,4,
{8}4,,26,,1>5[4:1]/7h[4:1],,,8,8,,6,6,5>1[4:1]/7h[4:1],,,6,
{8}5,4,6/3h[8:1],,4/7h[4:1],,B1,3h[8:1]/5,,2/6h[4:1],,
{8}4,8/3h[4:1],,B5,7h[8:1]/1,,6/2h[4:1],,4,
{4}3v8[2:1]/5,5,5,5,2/5-8[2:1],2,2,2,
{4}2>5[2:1]/6,6,6,6,6v1[4:1]/3,3,
{8}4,4,35,7,4>8[4:1]/6,,8v3[4:1],,6,6,5,,5<1[4:1]/3,,1v6[4:1],,3,3,4,,
{8}1qq2[2:1],5qq6[8:3],,,,,,,4b/8b,,,,
{8}3,2,1,8,7<4[8:1],,3,2<7[8:1],,6,5>2[8:1],,
{8}7h[4:1],,4,3h[4:1]/5,,6h[4:1],,2,
{16}4/7h[16:3],,,5,,,6,,5/2h[16:3],,,4,,,3,,5bx-3[8:1]/2bx-6[8:1],,,,,,,,
{8}6,7,8,1,2-5[8:1],,6,7p4[4:1],,3,2,,
{8}6h[4:1],,3,5/2h[4:1],,7h[4:1],,3,
{16}6/4h[16:3],,,5,,,3,,1/7h[16:3],,,2,,,5,,3bx-7[8:1]/6bx-4[8:1],,,,,,,,
{8}8,1,26,3,4qq1[2:1]/6,,7,7,,5,5,,7qq4[2:1]/2,,3,3,,1,1,,
{16}7h[16:3],,,6h[16:3],,,5h[8:1],,2h[16:3],,,3h[16:3],,,4,,2xh[4:1]/6xh[4:1],,,,,,
{8}4h[4:1],,5,6,7,8h[4:1],,,,1,2,3,4,5h[4:1],,,,
{8}1/6h[4:1],,3,,2,1,8pp4[4:5],7p4[8:9],
{1},,E
