&title=硝子の花園
&artist=南條愛乃; 楠田亜衣奈
&first=0
&des=luvlily
&lv_5=12+
&lv_6=12
&inote_5=(169)
{1},,
{32},
&inote_6=(169)
{1},,
{32},
{16}18,,,28,,,{16}
1h[2:1]/6h[2:1],,,,,,,,,,7,8,7,8,7,1,8,2,1,3,5,2,7,8,6,,1/2,,,17,,,3h[2:1]/8h[2:1],,,,,,,,,,
{16}4h[8:1]/5h[8:1],,,3h[8:1]/6h[8:1],,,27,,3h[8:1]/6h[8:1],,,2h[8:1]/7h[8:1],,,18,,6<3[2:1]/3,
{16},,,1,,1,,,,,,5,,,,
{16}3>6[2:1],,,,8,,8,,,,4,,,,,,
{16}6<3[2:1],,,,1,,1,,,,,,5,,,,
{16}3>6[2:1],,,,8,,8,,,,4,,,,,,
{16}6pp5[2:1],,,,1,,1,,,,,,4,,,,
{16}3qq4[2:1],,,,8,,8,,,,5,,,,,,
{16}6pp5[2:1],,,,1,,1,,,,,,3,,,,
{16}1,,1w5[16:3],,,,1,,,,,,7-4[8:1],8,7,,
{16}7/1-5[8:1],,,,6-1[8:1],,,,2-6[8:1],,,,7-4[8:1],,,,
{16}8-3[8:1],,,,5-8[8:1],,,,2-5[8:1],,,,7-2[8:1],,,,
{16}6-1[8:1],,,,8-5[8:1],,,,3-7[8:1],,,,4-1[8:1],,,,
{16}2-6[8:1],,,,8,,8>4[4:1],,,,4pp8[8:5],,,,,,
{16}1>4[4:1],,,,,,,,,,,,7,,,,
{16}7-3[8:1],,,,1,,1<5[4:1],,,,5qq1[8:5],,,,,,
{16}8<5[4:1],,,,,,,,,,,,2,,,,
{16}46,,4V61[8:3]/6V41[8:3],,,,46,,,,,,,,,,
{16}2>5[4:1],,,,6pp8[8:3],,7p3[4:1],,,,,,,,,,
{16}7<4[4:1],,,,3qq1[8:3],,2q6[4:1],,,,,,,,,,
{16}3>8[4:1],,,,7qq5[8:3],,6q2[4:1],,,,,,,,,,
{16}6<1[4:1],,,,2pp4[8:3],,3p7[4:1],,,,,,,,,,
{16}8,,1,,2V41[8:3],,5-8[4:1],,,,,,,,,,
{16}7,,6,,5V36[8:3],,2-7[4:1],,,,,,,,,,
{16}5,,4,,3V14[8:3],,8-5[4:1],,,,,,,,,,
{16}3,,2,,6,,7,,1,,8,,2-5[8:1],7,2,,
{16}2/1-6[8:1],,,,8-3[8:1],,,,7-4[8:1],,,,5-8[8:1],,,,
{16}3-8[8:1],,,,4-1[8:1],,,,6-1[8:1],,,,5,,,,
{16}3,4,3,1,2,1,3-8[8:1],,,,,,,,,,
{16}6,5,6,8,7,8,6-1[8:1],,,,,,,,,,
{16}1p5[8:1],,2,,3V17[16:5],,4v6[16:3],,,,,,,,,,
{16}8q4[8:1],,7,,6V82[16:5],,5v3[16:3],,,,,,,,,,
{16}4q8[8:1],,3,,2V46[16:5],,1v7[16:3],,,,,,,,,,
{16}7,8,7,,2,1,2,,6,5,6,,3-8[8:1],4,3,,
{16}3/5-2[8:1],,,,7-4[8:1]/5,,,,1-6[8:1]/7,,,,3-8[8:1]/1,,,,
{16}6-3[8:1]/3,,,,1-6[8:1]/6,,,,4-1[8:1]/1,,,,7-4[8:1]/4,,,,
{16}27,,,,3,4,3,4,3,,,,7,6,7,6,
{16}7,,,,2,1,2,1,2,,3,,4,,52,,
{8}6,5,47,8,1,27,3,4,
{16}25,,1,,8,,27,,6,,5,,47,,36,,
{16}25,,3,3,4,,25,,1,8,1,,7,5,6,4,
{16}5w1[8:1],,,,,,,,
{32}3,4,5,6,7,8,1,2,3,4,5,6,7,8,1,2,3b-8[8:1],,,,
{8},3,7,,
{16}65,,
{16}2,1,2,,8/3^8[8:1],,,,
{8}6,5,,45,3-7[8:1]/2-6[8:1],,32,,
{16}5/4,,54,,7,8,7,1,8,2,1>7[8:3],,,,,,
{16},,,,,,,,8-4[8:1]/3-1[8:1],,,,38,,,,
{16}8-3[8:1],,4-8[8:1],,,,,,2-7[4:1],,,,7<4[4:1],,,,
{16}4q8[4:1],,,,8>3[4:1],,,,3p6[4:1],,,,6p1[4:1],,,,
{16},,8,,8,,,,1,8,1,8,1,,,,
{16}12,,,,23,,,,34,,,,
{16}56,,7,,46,,3,,34,,2,,35,,6,,
{16}56,,7,,18,,2,,34,,2,,18,,7,,
{16}7,5,7,4,6,4,5,3,5,2,4,2,5,3,6,1,
{16}6,1,6,1,7,2,7,2,8,3,8,3,1,4,1,4,
{16}8,3,7,2,6,1,5,8,6,1,7,2,8,3,1,4,
{16}8,2,5,3,7,1,6,4,7,2,5,4,
{24}7,2,6,3,5,4,
{16}5-1[4:3],,,,,,,,,,,,,,,,
{16}4w8[2:1],,,,,,,,,,,,,,,,
{16}6<3[2:1]/3,,,,1,,1,,,,,,5,,,,
{16}3>6[2:1],,,,8,,8,,,,4,,,,,,
{16}6<3[2:1],,,,1,,1,,,,,,5,,,,
{16}3>6[2:1],,,,8,,8,,,,4,,,,,,
{16}6pp3[2:1],,,,1,,1,,,,,,5,,,,
{16}3qq6[2:1],,,,8,,8,,,,4,,,,,,
{16}6pp3[2:1],,,,1,,1,,,,,,5,,,,
{16}4,,4w8[16:3],,,,4,,,,,,2-5[8:1],1,2,,
{16}2/8-4[8:1],,,,3-8[8:1]/8,,,,7-3[8:1]/3,,,,2-5[8:1]/7,,,,
{16}4-7[8:1]/2,,,,6-1[8:1]/4,,,,8-3[8:1]/6,,,,2-6[8:1]/8,,,,
{16}4-1[8:1]/2,,,,7-3[8:1]/4,,,,5-8[8:1]/7,,,,1w5[8:1]/5,,,,
{16}1b,,,,37,,37,,2,,2,8,2,7,1,6,
{16}8-4[8:1],,,,6<1[8:1],,6,,,,,,2,1,2,,
{16}8/3-8[8:1],,,,7<4[8:1],,7,,,,,,3,4,3,,
{16}2/6<1[8:1],,,,4-8[8:1],,4,,,,,,7,1,7,,
{16}28,,8qq1[8:5]/2pp1[8:5],,,,28,,,,,,,,,,
{16},,,,
{32}1b/8b,2,3,4,,,,,,,,,
{32}1b/8b,7,6,5,,,,,,,,,
{32}1b<1[1:3]*>1[1:3],2b/8b,3b/7b,4b/6b,5b,,,,,,,,
{16},,,,,,,,,,
{16},,,,,,,,,,,,,,,,
{16},,,,,,,,,,,,,,,,
