&title=Kirakira Noel Story!!
&artist=Reku Mochizuki
&first=0.051
&des=Rainmaker
&lv_5=14
&des_5=Rainmaker
&inote_5=
(180){4},,{2}5/3h[4:3],
{4}4,5,6h[4:3],5,
4,3,{2}3h[2:1],
{4}5,{8}6,6h[8:5],,,,,,,4,
5,{2}3/6h[2:1],
{4}4,{8}5,4,6/3h[2:1],,,4,
{4}4,5,{2}6h[4:7],
{8}2,{16},,,,1,2,{2}3b<1[2:1],
{8},,,,2/8,,,7/3,
,,{4}6/4,{8},5/3,,,{4}7/1,
6/2,{8}5/3h[8:3],,,4h[8:3],
,,{4}5h[8:3],{8},6h[4:1],,,{4}1x/7x,
{8}6x,5,7/4,8,2/1,3,
4/5,6/3,{4}7/2,{8}3x/8x,4,6/5,7,
8/1,2/7,{4}3/6,{8}3/4,2,6/5,7,
8/2,3,5/4,7/2,{16}1,8,2,7,3,6,4,5,
{4}4w8[8:1],Cf,6xh[4:1],1,
{8}2b,4,3,5,{4}6/3,5-8[8:1]/4-1[8:1],
,,3xh[4:1],8,
{8}7b,5,6,4,3/6,7/2,{4}1-4[8:1]/8-5[8:1],
,,6h[4:1],5,
{8}4/7,8,1,2,{4}7/3,1s5[8:1]/8z4[8:1],
,,3h[4:1],4,
{8}5/2,1,8,7,2/6,3/5,{4}4-8[8:1],
4w8[8:1],Cf,{8}6/2,5,4/3,2,
8/1,7,6/5,7,1/2,3,8/7,6,
5/4,6/3,{4}7/2,{8}7/3,8,1/2,3,
5/4,6,7/8,6,4/3,2,5/6,7,
8/1,7/2,{4}6/3,1>4[8:1],{8}5,6,
{4}7>2[8:1],4-8[8:1],4,7-3[8:1],
7/1,2-5[8:1],6/2,7-4[8:1],
3/7,2-5[8:1],2b/8b-4[8:1],8b/1b-5[8:1],
1b/7b-4[8:1],3b/7b,{8}6b/2-5[8:1],3x,2/6-1[8:1],7x,
6/3,2,3/8,4,5/6,7,8/2,3,
5/4,6/3,{4}2/7-4[8:1],{8}7b/3-8[8:1],2x,3/7,6x,
1/5-1[8:1],2,5/3-8[8:1],4,7/3,6,5/1,2,
{4}8/3,5/6,{8}3b/7-4[8:1],6x,7/3-8[8:1],2x,
3/6,7,6/1,5,3/4,2,1/7,6,
4/5,3/6,{4}7/2-5[8:1],{8}2b/6-1[8:1],7x,6/2,3x,
8/4-8[8:1],7,4/6-1[8:1],5,2/6,3,4/8,7,
1/6,{16}2,4,{8}3,5/4,6b/3b,7/3,{4}2/6,
{8}7b/3-8[8:1],2,3/7-4[8:1],6,7/2,3,2/5,1,
7/8,6,5/3,2x,8b/1b,7/2,{4}3/6-1[8:1],
{8}6/2-5[8:1],3,2/6,7,4/8-4[8:1],3,8/2-5[8:1],1,
6/2,7,8/4,3,2b/6b,7,{4}8/2-5[8:1],
{8}2/6-1[8:1],7,6/2,3,8/4-8[8:1],7,4/6-1[8:1],5,
2/6,3,4/8,7,{16}1/6b,2,3,4,8,7,6,5,
3,2,1,8,4,5,6,7,{8}8/4,{32}A8,B8,C,B4,{8}A4,{32}A2,B2,C,B6,
{4}A6,B7/E7/B2/E3/B3/B6/Ch[4:1],,,{1}6x>7[2:5],
E5,
C,
{2}E1,3x<2[4:13],
{1}E3,
E5,
E7,
{2}C,{8}7h[4:1]/5h[8:1],,,3,
{4}2h[4:1]/4h[8:1],{8}5,6,{4}7h[4:1]/3h[8:1],{8}4,7,
{4}6/5h[8:1],{8}8,1,{4}2h[8:1]/7h[4:1],{8}3,7,
{4}4h[4:1]/5h[8:1],{8}6,5,{4}4h[8:1]/7h[4:1],{8}3,7,
6/2,5/3,8/2,7/3,6/2,1,8/7,6,
5/4,3,{4}2b/6b,{8}3/7,8,1/2,3,
4/5,6,{4}7b/3b,{8}4/3,3,6/5,6,
2/4,3,7/5,6,{16}1,8,2,7,3,6,4,5,
{4}4w8[8:1],Cf,{8}7bx/1bx,2,3/4,{16}6,4,
5,3,{8}6,7/3,6,8/2,3,4/6,7,
{16}2,6,{8}2,5/3,2,8/1,7,6/5,{16}3,5,
4,6,{8}3,8/1,7/2,6/3,{16}5,4,{8}6,7/3,
{16}2,1,{8}3,8/2,6/4,7b/3b,6,5/3,{16}2,4,
3-8[8:1],5,{8}2,3/4,5,6b/1b,2,7/3,{16}6,4,
5-1[8:1],3,{8}6,5/2,3,4b/8b,7,6/2,{16}3,5,
4-8[8:1],6,{8}3,7/4,6,5b/1b,2/6,3/7,{16}2,6,
2,6,{8}2,8/1,7/2,4b/5b,3,2/1,{16}7,1,
8,2,{8}7,6/2,7,5b/3b,2,1/7,6,
{16}2,7,{8}3,8/2,3,5b/4b,6,7/8,{16}2,8,
1,7,{8}2,5/4,6/3,7b/2b,{16}8,1,{8}7,6/2,
{16}3,4,{8}2,5/3,7/1,6b/2b,7,8/2,{16}3,1,
2-5[8:1],8,{8}3,2/1,8,7b/4b,3,6/2,{16}7,1,
8-4[8:1],2,{8}7,8/3,2,5b/1b,6,7/3,{16}2,8,
1-5[8:1],7,{8}2,6/1,7,{32}A7,B7,Cf,B3,{16}A3,{32}A1,B1,C,B5,{16}A5,{32}A8,B8,C,B4,
{16}A4,{32}A2,B2,C,B6,{16}A6,{8}8x,7x/1x,{4}2bx/6bxpp1[2:1],6,
3b,4qq8[2:1],4,8,
7b,6,2qq4[2:1],2,
4b,5,6pp3[2:1],6,
1b,2,3/4h[4:1],1,
6/5h[4:1],8,{8}1/7h[4:1],2,3,4,
8/2h[4:1],7,{4}6,{8}5/3,4,{4}3/5-8[8:1],
{8}5/1,2,3/7,4,6/5,7,8/1,7,
6/2,5/3,4x,{16}3x,4,{8}2x-6[8:1],3/7,{4}2b/8-4[8:1],
{8}8,2,3-8[8:1],8,3/7-4[8:1],6,7/1-5[8:1],2,
1/8-4[8:1],7,{4}2/8,{8}2b-6[8:1],8,{4}2/7-4[8:1],
{8}7/1,2,3-8[8:1],8,3/7-4[8:1],6,7/1-5[8:1],2,
{4}1/6,{8}7,{16}8,1,{8}7b/2b,6,5/3,4,
7/3,5,6/2,4,6pp1[2:1],5x,4x,4x,
3x,3x,2x,2x,{16}7b,8,7,8,{32}7b,6x,{16}5x,{8}1,
8/2b,{16}3,7,{32}2b,3x,{16}4x,{8}8,1/7h[4:1],{32}A1,B1,C,B5,{8}A5,{32}2xh[4:1]/A8,B8,C,B4,
{4}A4,2xq4<8[1:4]/6xq8>4b[1:4],{2}6/2,
E
