&title=RoquiRa : Between Life and Death
&artist=Raphiiel
&first=0
&des=MCxiaosu
&lv_6=15
&inote_6=(183)
{32}
,,,,,,,,,,,,,,,,,,,,,,,,,,,,,,,,2/7,3,4-8[8:1],,,,,,
{16}
,,7-3[8:1],,,,,,2-5[8:1],,,,8-4[8:1],,,,,,3-7[8:1],,,,,,6-2[8:1],,,,1-5[8:1],,,,,,4-8[8:1],,,,,,2-6[8:1],,,,7-3[8:1],,,,,,5-1[8:1],,,,,,7b,,,,2/6,,4,,5,,3/7,,5-1[8:1],,4,,2b,,,,7/3,,5,,4,,6/2,,4-8[8:1]b,,5,,7b,,,,2/6,,3,4,3,,2/6-1[8:1],,3,4,3,,2b,,,,3/7,,6,5,6,,3/7,,6,5,6,,3/7,,2/6,,1<3[8:10]b/5hb[8:8],,,,,,,,,,,,,,,,,,,,,,,,,,8h[8:4],,,,,,,,2-6<5[8:12],,,,,,,,,,,,,,,,,,,,,,,,,,,,,,8hb[8:8]/6x-2<3[8:10],,,,,,,,,,,,,,,,,,,,,,,,,,6h[8:4],,,,,,,,1s5<4[8:10],,,,,,,,,,,,,,,,,,,,,,,,,,,,,,4/6h[8:2],,,,4,,,,4,,5,,5,,3,,2/6,,3,,5,,4,,3-7[8:1]/7-3[8:1],,,,3/7,,,,6x,,4,,5,,3,,2-6[8:1]/6-2[8:1],,,,2/6,,,,3x,,6,,4,,5,,2-4[8:1]/7-5[8:1],,,,2/7,,,,1,,8,,2,,7,,3-7[8:1]/6-2[8:1],,,,3/6,,,,8,,1,,7,,2,,3-1[8:1]/6-8[8:1],,,,3<2[8:8]b/6,,,,Ch[8:6],,,,,,,,,,,,,,,,E2,,,,,,C,,,,,,E6,,,,3hb[8:12],,,,4,,,,4,,,,5,,,,6,,,,7,,,,8,,,,1<2[8:8],,,,E2,,,,E8,,,,E6,,,,E4,,,,1x-5[8:4],,,,8,,,,7,,,,6,,,,6h[8:12],,,,5,,,,5,,,,4,,,,3,,,,2,,,,1,,,,8>7[8:8],,,,E8,,,,E2,,,,E4,,,,E6,,,,8x-4[8:4],,,,1,,,,2,,,,3,,,,3/4,,,3,4-6[8:1],,3,,3/4,,,3,7-5[8:1],,3,,3/7,,,3,4-8[8:1],,3,,3/4,,,3,1-5[8:1],,3,,3/1,,,3,6-2[8:1],,3,,3/6,,,3,8-4[8:1],,3,,3/8,,,2,3-7[8:1],,2,,2/3,,,1,8-4[8:1],,1,,1h[8:1]/8x,,,2h[8:1]/5x,,,3h[8:1]/6,,,4h[8:1]/7,,,5x,,5x,,6h[8:1]/1,,,7h[7:1]/2,,,8h[8:1]/3,,,1h[8:1]/4,,,2,,2,,3,4,3,4,2,5,2,5,1,6,1,6,8,7,8,7,8-4[8:1],,,,,,,,8w4[8:1]b,,,,Cf,,,,2b-5[8:1]/6,,,,2/8-4[8:1],,,,8/3-8[8:1],,,,5-1[8:1]/3,,,,5/2>5[8:1],,,,2x/8-6[8:1]*-5[8:1],,,,8-4[8:1]*-3[8:1],,,,A8,,,,8,7,6,5,4/3-8[8:1],,,,5-1[8:1]/3,,,,5/2-6[8:1],,,,2/7<4[8:1],,,,1-5[8:1]/7,,,,1-6[8:1]*-7[8:1]/8h[8:1],,,,1bx,A7f,,,8x,8x,1,2,7x-4[8:1]/3,,,,7/1-5[8:1],,,,1/6-1[8:1],,,,4-8[8:1]/6,,,,4/7<4[8:1],,,,7x/1-3[8:1]*-4[8:1],,,,1,,,,7,,,5/6,,5/6,,,5-7[8:1]/4,,,,5/4h[8:1],,,,4x/8x,3,2,1,4/8,5,6,7,4/8,3,2,1,4/8,5,6,7,1/8h[8:1],,,1,1,2,3,4,5h[8:2],,,6x,,,7,,1b-5[8:1]/8,,,,7-4[8:1]/1,,,,7/2v5[8:1],,,,8x-4[8:1],,8x,,8x,,1,2,3-8[8:1]/7,,,,7-3[8:1]/3,,,,1-5[8:1]/7,,,,1/4x<8[8:1],,,,4/2-6[8:1],,,,1/2,,,7h,,,4,,B4/B3/E4f/8x,7,6,5,4-8[8:1],,,,4/1-5[8:1],,,,1,,7h,,6h,7,8,1,2,3,4,5,1w5[8:1],1h,,,1x,,D6/A5f/D5,,3/7,,,2/6,,,1/7,,8,8,,8,,,8,,Ch[8:6]/8x,,8,,8,,8,,8-4[8:1],,8,,8,,,,3/5,,2,1,3,,6,5,6,,8,7,1,2,3,4,5/7,,6,4,5,,3,4,3,,1,2,8,7,6,5,4/2,,3,4,2,,6,5,6,,1,8,2,,3/7,,6,5,6,,2,4,2,,8,1,7,2,6,3,5,4,3/4hx[8:2],,2,,2,,4h[8:2]/5,,6,,6,,8/7h[8:1],,1,,2/5h[8:2],,3,,3,,4h[8:2]/7,,6,,6,,3/5h[8:1],,2,,1h[8:2]/7,,8,,8,,3/5h[8:2],,4,,4,,5/7,,1,,
{24}
2/8h,3,4,,,,1h/7,6,5,,,,1h/2,3,4,,,,7/8h,6,5,,,,
{16}
1/2,3,4,5,1,8,7,6,2x-6[8:1]/1x-6[8:1],,4,,E2,,,,7,6,5,4,8,1,2,3,7-3[8:1]/8x-3[8:1],,5,,E8,,,,1/8,,2,,1/8,2/7,3/6,4/5,8/1-5[8:1],,7-3[8:1],,1,,7,,2,4,2,,6,5,6,,1,8,2,7,3,6,4,5,3>8[8:1],,4,,3,,5,,6<1[8:1],,5,,6,,4,,2>5[8:1],,1,,2,,8,,7<4[8:1],,8,,7,,1,,2,4,2,6,3,5,3,7,4,6,4,8,5,7,5,1,6-2[8:1],,,,6,C,,,8w4[8:1],,,,8,C,,,1b/7b-5[8:1],,8,,1/7,,2,,3,4,3,,1/7,,6,,2-4[8:1]/8,,1,,2/8,,7,,6,5,6,,2/8,,3,,4/6-8[8:1],,5,,6/4,,3,,2,1,2,,3/7,,6,,5/3-1[8:1],,4,,5/3,,6,,7,8,7,,2<7[8:1]/6,3,4,5,2b/6xw2[8:1],,,,,,,,4,,8,,3/7,,2/8,,2-4[8:1]/8-6[8:1],,1,,2/8,,,,5,5,5,5,4h[8:1]/6h[8:1],,,,3bv8[8:1]/7bv4[8:1],,,,3/7,,,,1<5[8:1]/5,2,3/7h,4,5/1,,,,2,3,4,5,7,6,5,4,
{24}
1,8,1,8,1,8,2,7,2,7,2,7,
{16}
3bv8[8:1],,,,3/7b<4[8:1]b,,,,1-5[8:1],1,,,7b,,,,8-4[8:1],,,,1bv6[8:1]/8,,,,8,8,,,7b-3[8:1],,,,2v5[8:1]/7,,,,6b-1[8:1]b,,,,4,4,,,3bv6[8:1],,,,7v4[8:1],,,,1/7b,,,,
{32}
1b/8,2,3,4,,,,,7b/8,6,5,4,,,,,1b/2b,3/8,4/7,5/6,,,,,4,,,,7,,,,3/8-4[8:1],,,,
{16}
2,,1/8,,,,2-5[8:1],,3,,2/7,,,,6-1[8:1],,7,,4/6,,,,
{24}
5,6,7,8,1,2,3,4h[12:1]/8h[12:1],,
{16}
,5h[12:1]/6h[12:1],,,2h[12:1]/4h[12:1],,,8h[12:1]/6h[12:1],,,1h[16:1],,1h[16:1],,1h[16:1],,1-5[8:1],,8b,,8b,,7b,,6b,,5bw1[8:1]b/Cf,,,,,,,,3x-7-1-5[8:8]/7x,,,,5h[8:1],,,,6x,,6h[16:1],,,,7,,7h[16:1],,,,8-4-6-2[8:6],,,,4,,4h[16:1],,,,3,,3h[16:1],,,,1-5[8:4],,,,7,,7h[16:1],,,,8,,8-4[8:1]b,,,,,,,,3-8[8:1]/5-8[8:1],,,,,,,,6x-2-8-4[8:8]/2x,,,,4h[8:1],,,,3,,3h[16:1],,,,2,,2h[8:1],,,,1h[8:1],,,,2hb[12:1]/4hb[12:1],,,6hb[12:1],,,5b/7b,,1hb[12:1],,,2hb[12:1]/8hb[12:1],,,3hb[12:1]/7hb[12:1],,E3,B3,B4,E5,E1,B8,B7,E7,2,3,4,5,3,4,5,6,7/2h[8:8],,,,,,,,4,,,,4h[8:6],,,,,,,,5,,,,5h[8:4],,,,6<1[8:4],,,,,,,3,3,,,,2-5[8:2],,,,,,,,7<4[8:2],,,,,,,,4x,3,2,1,8h[8:2]/4x,,,,6,,,,6-1[8:3],,,,4h[8:3],,,,,,,,,,,,3h[8:4]/1qq6[8:3],,,,,,,,,,,,2/7hx[8:8],,,,,,,,5,,,,5h[8:6],,,,,,,,4,,,,4h[8:4],,,,3>8[8:4],,,,,,,6,6,,,,7-4[8:2]b,,,,,,,,2>5[8:3],,,,,,,,8,,,7,7,,,,6-1[8:2],,,,5,,4x,3,2h[8:4],,,,,,,,8x-4[8:4],,,,8hx[8:4],,,,,,,,,,,,8>8-2-4-6-8-4[8:20]b,,,,,,,,,,,,,,,,,,,,,,,,,,,,,,,,,,,,,,,,,,,,,,,,,,,,E3,,,,E4,,,,,,,,E7,,,,E6,,,,,,,,C,,,,E5,,,,,,,,E1f/B8/B1/B2/B7/Chf[8:4],,,,,,,,3x,,3hx[8:2],,,,,,4,,4h[8:2],,,,,,5,,5h[8:2],,,,7-3[8:1],,,,2,,2h[8:2],,,,1,,1h[8:2],,,,,,8,,8h[8:2],,,,,,7,,7,,6,5,,5,6,,5,5,4,4,3,3,2bx<5[8:2],,,,,,,,4,,4h[8:2],,,,,,3,,3h[8:2],,,,2x-6[8:1],,,,1,,1h[8:2],,,,4h[8:4],,,,
{24}
8b,7,6,
{16}
,,5hx[8:2],,,,,,,,
{32}
2b/1,3,4,5,,,,,7b/8,6,5,4,,,,,1b,2/8,3/7,4/6,5,,,8b,1/7,2/6,3/5,4,,,,,
{24}
2x/6x,,1,,8,,3x/7x-3[8:1],,,,,,
{16}
4h[8:1],,,,4,5,4,,
{24}
2x/6x,,5,,4,,3x-8[8:1]/7x-4[8:1],,,,,,
{16}
3/7,C,,,1,,5,,
{24}
2x/6x,,5,,4,,3x-7[8:1]/7x,,,,,,
{16}
8h[8:1],,,,8,1,8,,
{24}
3x/7x,,1,,8,,2x-5[8:1]/6x-1[8:1],,,,,,
{16}
2/6,C,,,8,,4,,
{24}
3x/7x,,6,,5,,3x/7x-4[8:1],,,,,,
{16}
2h[8:1],,,,2,3,2,,
{24}
1x/8x,,7,,6,,1x-5[8:1]/8x-4[8:1],,,,,,
{16}
1/8,C,,,3/6,,2/7,,1x/8x,2,3,4,5-1[8:1]/7,,,,6h[8:1]/5,,,,2/8,7,6,5,4/1,2,3,4,5-1[8:1]/1,8,7,6,4h[8:1]/5,Cf,,,,,,,2,8,2,8,2,8,2,8,3b,7,3,7,3,7,3,7,2,6,2,6,2,6,2,6,3b,5,3,5,3,5,4,6,5,7,5,7,5,7,5,7,6b,7,6,7,6,7,6,7,5,4,3,2,8,7,6,5,1bx,8,7,6,2bx,1,8,7,2b/6,,1,5,1,5,1,5,2x,3,4,5,8,7,6,5,2,4,2,5,2,6,2,7,2,8,2,1,3,1,4,1,5,8,5,8,5,8,5,8,5b,7,5,7,5,7,5,7,4,3,2,1,6,5,4,3,
{32}
1,2,3,4,5,6,7,8,1/5,4,3,2,1,8,7,6,
{16}
5,1,4,1,4,1,4,1,3b,1,3,1,3,1,2,1,2,1,8,1,8,1,8,1,7b,1,7,1,7,1,7,1,6,5,4,3,1,2,3,4,7bx,6,5,4,2,3,4,5,8,6,8,6,7,5,7,5,
{24}
6b,5,4,3,2,1,8x/4,5,6,7,8,1,
{16}
2bx,4,2,4,2,4,2,4,3b,4,3,4,3,4,3,4,3,5,3,5,2,6,2,6,1,7,1,7,8,8,8,8,
{32}
1b,2,3h[8:4],,,,,,,,,,7b,6,5h[8:2],,,,,,,,,,4,,4,,4,,4,,3b,2,1h[8:4],,,,,,,,,,8b,7,6h[8:2],,,,,,,,,,1,,,,2,,,,1/8,,7,,6/1,,5,,4/1,,2,,3/8,,4,,5/8,,7,,6/2,,5,,4/2,,3,,4/7,,5,,
{24}
6/7,8,1,2,3,4,5,6,7,8,1,2,
{16}
3,3,3,3,3,3,3,3,
{32}
4x/5x,,6,,7x/4x,,8,,1x/4,,3,,2/5,,1,,8/5,,6,,7/3,,8,,1/3,,2,,1/6x,,8,,
{24}
7/6x,5,4,3,2,1,8,7,6,5,4,3,
{16}
2,2,2,2,2,2,2,
{32}
1/3,4/8,5-1[8:1]/7h[8:1],,,,,,,,,,,,
{24}
,,,6,5,4,3,2,1,8,7,6,5,4,3,1x,8,7,6,3x,2,1,8,5x,4,3,2,7x,6,5,4,1x,8,7,6,3x,2,1,8,7/3,2/6,1/5,4h[8:2]/8h[8:2],,,,,,,,,1/5,2/6,3h[8:2]/7h[8:2],,,,,,,,,,2x,3,4,5h[16:3],1x,8,7,6h[16:1],,,1b,8,7,6,5,4,3,8b,1,2,3,4,5,6,7-4[8:1]/2,,,,,,1-6[8:1],,,,,,8-3[8:1],,,,,,5-2[8:1],,,,,,
{16}
4-7[8:1],,,,8-3[8:1],,,,6-1[8:1],,,,5-2[8:1],,,,8b,,7,,3b/7,,6,,6/2b,,5,,5/1b,,4,,4/8b,,3,,3/7b,,3b/7,,
{32}
7x,3x,7x,3x,7x,3x,7x,3x,7x,8,1,2,3,4,5,,8b-4[8:1],,,,,,8b,,,,,,1b-5[8:1]b,,,,,,1b,,,,,,2b-6[8:1],,,,,,2b,,,,,,3bw7[8:1]b,,,,,,3b,,,,,,A7f/D7/D8,,,,,,,,6/8,5,4,3,2,1,8,7,6b-2[8:1],,,,,,6b,,,,,,8bw4[8:1]b,,,,,,8b,,,,,,A4f/D5/D4,,,,,,,,
{24}
2/6,1,8,7,6,5,4/7,8,1,2,3,4,5/7,8,1,2,3,4,5h[8:1]/6,7,8,1,2,3,4/8xw4[8:1],,,,,,,,,,,,
{16}
1/7,2,3,4,5-1[8:1],,,,5/6,7,8-4[8:1],,,,1,2,3b-7[8:1],,,,2/3,,,,1,2,3,4,8,7,6,5,8w4[8:1],,,,8,,,,2/6,,1h[8:1]/7h[8:1],,,,1/7,8,7,6,5,
{32}
4/8,1,2,3,4,5,2,3,4,5,
{16}
6hb[8:2]/7hb[8:1],,,,,,,,8,7,6,5,4-8[8:1],,,,3/4,2,1-5[8:1],,,,8,7,6b-2[8:1],,,,5,4,3h[8:1],,8,7,6,5,2,3,4,5,7,6,5,4,6x,5,4,3,8bv5[8:4]*v3[8:4],,,,,,,,,,,,,,,,4,6,3,6,2,6,2,6,1,7,1,7,1,7,1,7,2,8,3,7,4,6,1,7,2,6,3,5,4,6,3,7,2,4,1,7,5,8,3,4,1,6,5,8,3,5,1,7,8,8,8,8,8,8,8,8,
{24}
1,2,3,7,6,5,2,3,4,8,7,6,
{16}
1-3[8:1]/5,,2,,1/5-7[8:1],,6,,1/5-1[8:1],2,3,4,5/8-3[8:1],7,6,5x,4/8-4[8:1],5,6,7,8/2-6[8:1]b,,,,2b,,,,8b,,3b/7b,,6,5,6,1,5,4,5,8,4,3,4,7,3,2,3,6,7,8,1,2,3/8,1,2,3,4/2,3,4,5,6/8,7,6,5,4/8x-6-2<1-5[8:16],,,,,,,,,,,,,,,,,,,,,,,,,,,,,,,,,,,,,,,,,,,,,,,,3hx[8:4],,,,,,,,Ch[8:2],,,,,,,,1bx-3-7>8-4[8:16]b,,,,,,,,,,,,,,,,,,,,,,,,,,,,,,,,,,,,,,,,,,,,,,,,Ch[8:4]/B7/E7/B6/E3/B2/B3,,,,,,,,8<5[12:2],,,,,,
{32}
1,2,3,4h,
{16}
,,,,3h[8:2],,,,4h[8:2],,,,5h[8:2],,,,6h[8:4],,,,,,,,8h[8:4],,,,,,,,2<4[8:4],,,,,,,,,,,,,,,,8-4[8:1],,,,,,,,Ch[8:2],,,,,,,,1b,,,,2h[8:2],,,,4h[8:2],,,,5h[8:2],,,,7h[8:4],,,,,,,,1h[8:4],,,,,,,,3s7[8:4],,,,,,,,,,,,,,,,3h,4h,3h,,6h,5h,6h,,1h,8h,2h/7h,,5h,4h,3h/6h,,2bq6[8:2]/7,,,,2b,,,,1-5[8:1]b,,1,,,,,,3>7[8:1],,3,,4,,5,,6-1[8:1],,6,,C,,,,2-6[8:1]b,3,4-8[8:1],5,2x,,4,,,,7-3[8:1],,,,,,8,1,2,3,4/8h[8:1],,,,7h/6h,,,5h/6h,,5h/4h,,,3bq7[8:1]/4b,,,,3,,,,1-5[8:1]b,,1,,,,2,,3,,3,4,3,,4h[8:1],,5h[8:1],,6b,,1,2,3,4,5-1[8:1],,,,5/6,,7<4[8:1]b,,,,7/8,,C/B7/E8/B8,,,,1x-5[8:1]/8x-4[8:1],2x/7x,3x/6x,4x/5x,1/8,,,,3b/6b,,,2b-6[8:1]/7b-3[8:1],,,2b/7b,,Cf,,,,4/5,3,2/6,,,,1h[8:1]/7h[8:1],,,,,,8p5[8:3],,8,,2<2[8:2]b,,2,,,,A5f,,,,,,1x,,1x,,8/7-4[8:1],,,,5-2[8:1],,5,,,,,,8,7,6,5,3h/4h,,,,3h/2h,,,1h/2h,,,1h/8h,,1b-6[8:1]b/8b-4[8:1],,,,,,,,5,,3v8[8:1]/7-4[8:1],,,,,,,,2/6,3,4,,3/7,,3/7,,3p6[8:1]/7p2[8:1],,,,,,,,,,1s5[8:2]/7z3[8:2],,,,,,Cf,,,,,,B2/B3/E3/Chf[8:8],,,,,,,,,,,,,,,,1b-5[8:1],,2,,3/1,,,,4z8[8:1],,4,,,,,,7<4[8:1],,7,,1-5[8:1],,1,,7-3[8:1],,7,,,,,,8,1,2,3,4h[8:1]/8,,,,7,,2v5[8:1]/6v1[8:1],,,,,,,,,,8/4,7/3,6/2,5/1,4h[8:1]/8h[8:1],,,4x/8x,,,1/5,,
{32}
1x/5x,E2/E6,B6/B2,B3/B7,E4/E8,,,,
{16}
1bxp5<4[8:3]/5bxp1[8:1],,,,,,A1,,,,,,8p4[8:1],,6,,8,,1-4[8:1]*-6[8:1],,2,,1,,,,,,3v1[8:1]/7v5[8:1],,,,3/7,,,,2-5[8:1]/6-1[8:1],,2/6,,,,,,Ch[8:2]/E5/B5/B4/E1/B1/B8,,,,,,,,3h/7h,,,2h/8h,,,2bh/8bh,,1bw5[8:1],,,,
{32}
B1,C,B5,E6/E5,
{16}
,,3/7,2,1bh[8:2]/5,,,,,,7,6,5,4,1-5[8:1],,1,,3w7[8:1],,3,,,,,,1,2,3,4,5-1[8:1],,,,5/6,,7b-3[8:1],,,,,,Ch[8:2],,,,,,,,5h/6h,,,4h/5h,,,3h/6h,,2bh/7bh,,,,1s5[8:1]/8z4[8:1],,,,,,A5/A4/D5f,,,,4/5,,3/7,,2,8,2,,1h[8:1],,8h[8:1],,7b,,6,5,4,3,2-5[8:1],,,,2,,,,8b,,6bz2[8:1]/5b,,,,,,4,4,,,3,1,3,1,2,8,2,8,
{32}
1,8,7,6,5,4,3,2,
{8}
1b/Cf,,,,,,,,,,,,,,,,4>1[8:8],,,,,,,,,,,,,,E1,,5x<8[8:8],,,,,,,,Ch[8:8],,,,,,,,,,,,,1x<1[8:8]*>1[8:8],,,,,,,,,,,
{32}
2/8,3/7,4/6,5,
{16}
,,3/5,,3,4,3,,6/4,,6,5,6,,2/5,,2,4,2,,2,,
{32}
2x/3,4,5,6,,,,,7x/8,1,2,3,,,,,5x/6x,4/7,3/8,1/2,,,,,
{16}
2/1,,2,1,2,,2/8,,2,8,2,,2/7,,2,7,2,,2,,
{32}
2/6,3,4,5,,,,,
{24}
8,8,8,8,8,8,
{32}
1/7,2/6,3/5,4,
{16}
,,4/6,,6,5,6,,3/5,,3,4,3,,
{32}
2/1,3,4,5,
{16}
,,6/7,,7,8,7,,7/1,,7,1,7,,
{32}
7/C,6,5,4,,,,,2/C,3,4,5,,,,,7/C,6,5,4,3,2,1,8,7/2,3,4,5,6,7,8,1,
{16}
2h[8:4]/Ch[8:4],,,,,,,,,,,,,,,,Ch[8:2]/B8/B1/B2/B7/B3/B4/B5/B6,,,,,,,,2,4,2,5,2,6,2,7,
{12}
2,8,2,1,2,3,
{8}
2h[8:1],4,2h[8:1],5,
{32}
6>3[8:2]/2,D7,A7,D8,,,,,3,,,,,,,,2x,E2,B1,B8,E8,,,,Ch[8:1],,,,,,,,2x/6x,,3,,4,,5,,2x-5[8:1]/6-1[8:1],,7,,8,,1,,2/6,,,,,,,,3b/7b,,,,,,,,
{16}
Ch[8:2],,,,,,,,2,4,2,5,2,6,2,7,
{12}
2,8,2,1,2,3,
{8}
2h[8:1],4,2h[8:1],5,
{16}
2x,3,4,5,8,7,6,5,4/2,3,4,5,6/1,7,8,1,2/6,5,4,3,2/5,1,8,7,6/2,3,4,5,1,8,7,6,Ch[8:2],,,,,,,,
{16}
7,5,7,4,7,3,7,2,
{12}
7,1,7,8,7,6,
{8}
7h[8:1],5,7h[8:1],4,
{32}
3<6[8:2]/7,D3,A2,D2,,,,,6,,,,,,,,7x,E8,B8,B1,E2,,,,Ch[8:1],,,,,,,,7x/3x,,6,,5,,4,,7x-4[8:1]/3-8[8:1],,2,,1,,8,,7/3,,,,,,,,6b/2b,,,,,,,,Ch[8:2],,,,,,,,
{16}
,,,,3,4,3,4,5,6,5,6,
{12}
4,5,3,4,2,5,
{8}
1h[8:1],6,2h[8:1],7,
{16}
1,2,3,4,5-2[8:1],8,7,6,5-8[8:1],,,,5x,,,,
{32}
1,2,3,4h[8:1],,,,,8,,,,7,,,,6,,5,,6,,,,4/7,,,,3/8,,,,1b-5[8:1]/2b-6[8:1],,,,,,,,,,,,,,,,Ch[8:1],,,,,,,,A5,A4,A3,A2,
{24}
A1/D2f/B1,,,7-3[8:1],,7,,8,,7/1,,,,,,2b-6[8:1],,2,,1,,8/2,,,,,,5-1[8:1],,5,,4,,3/5,,,,,,4b-8[8:1],,4,,5,,4/6,,,,,,Ch[8:2],,,,,,,,,,,,2x-6[8:1],,,,,,5-1[8:1],,,,,,3-8[8:1],,,,,,3/4,,,,,,7-4[8:1],,,,,,7/8,,,,,,1-5[8:1],,1,,1,,1,,,,,,7-3[8:1],,7,,7,,7,,,,,,2-6[8:1]/4,,2/4,,2/4,,2/4,,,,,,5/7-3[8:1],,5/7,,5/7,,5/7,,,,,,Ch[8:2],,,,,,,,,,,,1q5[8:2],,,,,,5q1[8:2],,,,,,1>5[8:2],,,,,,5<1[8:2],,,,,,C,,,,,,,,,,,,2-6[8:1],,2,,1,,2/8,,,,,,7b-3[8:1],,7,,8,,1/7,,,,,,4-8[8:1],,4,,5,,6/4,,,,,,5b-1[8:1],,5,,4,,5/3,,,,,,Ch[8:2],,,,,,,,,,,,7x-3[8:1],,,,,,4-8[8:1],,,,,,6-1[8:1],,,,,,6/5,,,,,,2-5[8:1],,,,,,2/1,,,,,,8-4[8:1],,8,,8,,8,,,,,,2-6[8:1],,2,,2,,2,,,,,,7-3[8:1]/5,,7/5,,7/5,,7/5,,,,,,4/2-6[8:1],,4/2,,4/2,,4/2,,,,,,
{16}
Ch[8:2],,,,,,,,2/5,,3,,4,,4/7,,6,,5,,2/4,,3,,2/8,,2,,1/7,,1,,7h[8:12]/8,,,,,,,B8,B7,B6,B5,B4,B3,,E2,,E1,,E8,,E7,,,,E6,,,,E5,,,,,,E4,,,,,,,,E3,,,,,,,,,,,,E2,,,,,,,,,,,,,,E1,,,,,,,,,,,,,,,,Ch[8:26],,,,,,,,,,,,,,,,,,,,,,,,,,,,,,,,,,,,,,,,,,,,,,,,,,,,,,,,,,,,,,,,,,,,,,,,,,,,,,,,,,,,,,,,,,,,3>7[8:6],,,,,,4,,,,,,5,,,,6>2[8:6],,,,,,7,,,,,,8,,,,1-5[8:4],,,,,,,,5>1[8:6],,,,,,,,6,,,,7,,,,8,,,,8h[8:10],,,,
{32}
E8,B7,,,,,,,,,,,E6,,,,,,,,,,,,E5/B4,,,,,,,,2h[8:8],,,,,,,,,,,,B2,E3,,,,,,,,,,,B5/E6,,,,,,,,B7/B8,,,,,,,,,,,,A1,,,,,,,,,,,,B2,,,,,,,,B3,B4,E5,,,,,,E8,,E7,,E6,,,,C,,,,,,,,E1,,,,,,,,
{16}
6<2[8:6],,,,,,5,,,,,,4,,,,3<7[8:6],,,,,,2,,,,,,1,,,,8-4[8:4],,,,,,,,4<8[8:6],,,,,,,,1,,,,2,,,,3,,,,3h[8:10],,,,
{32}
E4,B3,,,,,,,,,,,E2,,,,,,,,,,,,E1/B8,,,,,,,,6h[8:8],,,,,,,,B6,,,,,,,,B1,,B2,,B3,,,,,,,,,,,,4x-8[8:1],,,,,,,,,,,,,,,,4x-7[8:1],,,,,,,,,,,,,,,,1x-4[8:1],,,,,,,,,,,,,,,,1x-5[8:1],,,,,,,,,,,,,,,,1bx<2[8:8],B1f,Cf,B5f,5hx[8:4],,,,,,,,,,,,,,,,,,,,,,,,,,,,,,,,,,,,,,,,,,,,,,,,,,,,,,,,,,,,8bx>7[8:8],B8f,Cf,B4f,4hx[8:4],,,,,,,,,,,,,,,,,,,,,,,,,,,,,,,,,,,,,,,,,,,,,,,,,,,,,,,,,,,,2bx,B2,Cf,B6,,,,,,,,,8bx>7[8:8],B8,Cf,B4,4hx[8:4],,,,,,,,,,,,,,,,,,,,,,,,,,,,,,,,,,,,,,,,,,,,,,,,7bx,B7,Cf,B3,,,,,,,,,1bx<2[8:8],B1,Cf,B5,5hx[8:2],,,,,,,,,,,,,,,,Ch[8:4],,,,,,,,,,,,,,,,,,,,,,,,,,,,,,,,1b,2/8,3/7,4/6,5z1[8:10]*s1[8:10],,,,,,,,,,,,,,,,,,,,,,,,,,,,,,,,,,,,,,,,,,,,,,,,,,,,,,,,,,,,8b,7/1,6/2,5/3,4s8[8:10]*z8[8:10],,,,,,,,,,,,,,,,,,,,,,,,,,,,,,,,,,,,,,,,,,,,,,,,,,,,,,,,,,,,2b,3,4,5h[8:8],,,,,,,,,1b,8,7,6<8z4[8:8],,,,,,,,,,,,,,,,,,,,,,,,,,,,,,,,,,,,,,,,,,,,,,,,,7bx,6,5,4h[8:8],,,,,,,,,8b,1,2,3>1s5[8:8],,,,,,,,,,,,,,,,,,,,,,,,,,,,,,,,,,,,,,,,,,,,,,,,,1b/8b,2/7,3/6,4/5,,,,,3hx[8:2],,,,,,,,4h[8:2],,,,,,,,5h[8:2],,,,,,,,6h[8:4],,,,,,,,,,,,,,,,7-3[8:2],,,,,,,,,,,,,,,,E1,,,,,,,,E8/B8,,E7,,E6,,E5,,E4,,E3,,E2,,E1,,7hx[8:2],,,,,,,,,,,,,,,,B1/B2,,E3,,E4,,E5,,E6,,E7,,E8,,E1,,2hx[8:2],,,,,,,,Cf,,,,,,,,6hx[8:2],,,,,,,,5h[8:2],,,,,,,,4h[8:2],,,,,,,,3h[8:4],,,,,,,,,,,,,,,,2-6[8:2],,,,,,,,,,,,,,,,E1,,,,,,,,E2/B1,,E3,,E4,,E5,,E6,,E7,,E8,,E1,,2hx[8:2],,,,,,,,,,,,,,,,B8/B7,,E7,,E6,,E5,,E4,,E3,,E2,,E1,,7hx[8:2],,,,,,,,Cf,,,,,,,,6/5,,,,,,,,6h[8:2],,,,,,,,5h[8:2],,,,,,,,4h[8:2],,,,,,,,,,,,,,,,3-1[8:2],,,,,,,,,,,,,,,,7-5[8:1],,,,,,,,4-8[8:1],,,,,,,,6x-2[8:1],,,,,,,,1-5[8:1],,,,,,,,7v4[8:1]*v2[8:1],,,,,,,7x,,,,,,,,,1xv6[8:1]*v4[8:1],,,,,,,,1x,,,,,,,,3b/7b,,,,,,,,3/4,,,,,,,,3h[8:2],,,,,,,,4h[8:2],,,,,,,,5h[8:2],,,,,,,,,,,,,,,,6-8[8:2],,,,,,,,,,,,,,,,2-4[8:1],,,,,,,,5-1[8:1],,,,,,,,3x-7[8:1],,,,,,,,8-4[8:1],,,,,,,,2v5[8:1]*v7[8:1],,,,,,,2x,,,,,,,,,8xv3[8:1]*v5[8:1],,,,,,,,8x,,,,,,,,6b/2b,,,,,,,,,,,,,,,,,,,,,,,,,,,,,,,,,,,,,,,,,,,,,,,,,,,,,,,,E3,,,,E4,,,,E5,,,,,,,,,,,,B6/E6,,,,,,,,B2/E3,,,,,,,,,,,,B8/B7,,,,,,,,E1/E2,,,,,,,,B6/B4,,,,,,,,E1,,E8,,E7,,E6,,E5/3h[8:4],,,,,,,,4,,,,C,,,,,,,,,,,,,,,,,,,,6h[8:4],,,,,,,,5,,,,C,,,,,,,,,,,,2,,,,1,,,,2h[8:12],,,,,,,,8,,,,C,,,,7x,,,,,,,,,,,,6,,,,,,,,5,,,,,,,,4,,,,,,,,3,,,,,
(200)
{16}
2/C,,2,,2,,2/E8,,2,,2,,2,,2,,8/C,,8,,8,,8/E2,,8,,8,,8,,8,,3/B7,,3,,3,,3/C,,3,,3,,3,,3,,2/8,,,1x,2x-6[8:1],,3x,,2x/4,5x,6x,7x,8x,1x,2x,3x,4x,2,1,2,1,2,1,2,1,2,1,2,3,8,4,7,5,6,7,6,7,6,7,6,7,6,7,6,8,1,2,3,
{24}
4,8,4,8,4,8,4,8,4,8,4,8,4,8,4,8,4,8,4,8,4,8,4,8,
{16}
4,,,,C,,,,,,,,,6,7,8,2-6[8:1]/1,,3,,2/1,,8,,1,2x,3,4,5,6,7,8,1/2v5[8:1],,3,,1/2,,8,,7,6,5x,4,3,2,1,8,7-3[8:1],,7,,7/1-5[8:1],,2,,1/8-4[8:1],,7,,3/8,,2,,1v6[8:1]/6,,,7,1,,Cf,,8,1,2,3,4,5,6,7,8-4[8:1],,1-3[8:1],,8,,1,,5,6,7,8,1,2,3,4,1-5[8:1],,8-6[8:1],,1,,8,,4,3,2,1,8,7,6,5,4/7,,7,,7,8,7,,7/1,,7,,2/7,,7,,3-8[8:1]/7,,,4,3,,5,,6,5,6,,4/7,3,2,1,7-3[8:1]/8,,6,,7/8,,1,,8,7x,6,5,4,3,2,1,8/7v4[8:1],,6,,8/7,,1,,2,3,4x,5,6,7,8,1,2-6[8:1],,2,,2/8-4[8:1],,7,,8/1-5[8:1],,2,,6/1,,7,,8v3[8:1]/3,,,2,8,,Cf,,1,8,7,6,5,4,3,2,1-5[8:1],,8-6[8:1],,1,,8,,4,3,2,1,8,7,6,5,8-4[8:1],,1-3[8:1],,8,,1,,5,6,7,8,1,2,3,4,5h[8:7]/2h[8:2],,,,,,3h[8:2],,,,,,4h[8:1],,,,3,6,3,6,2,,7,,2,,8h[8:3],,1,,B1,,C,,8x>8[8:12],,,,,,,,,,,,,,,,,,,,,,,,,,,,,,,,,,,,,,,,,,
{24}
2-8[8:1],3,4,7,6,5,
{16}
2b,,,7b,,,6b,,5-1[8:1]/4-8[8:1],,3/6,,4/5,Cf,,,2>5v2[8:2],,4,,2,,8,,8,7,6,5,4,3,2,1,8<5v8[8:2]/4,,5,,8,,2,,2,3,4,5,6,7,8,1,2-5[8:1]/6x,,3x,,8-4[8:1],,7,,3-1[8:1],,2,,5-1[8:1],,6,,B3/B2/E3f,,,,,,4,,4,3,2,1,8,7,6,5,4>1-5[8:2]/8,,1,,4,,8,,8,7,6,5x,4,3,2,1,8<5-1[8:2]/4,,5,,8,,4,,4,3,2,1x,8,7,6,5,4/8,,3,5,3,,7,5,7,,4,6,4,6,3,5,2,4,1v6[8:1],,1,,7v4[8:1],,7,,2,,2,,3,,4x/8,,7,,6,,2/5,,3,,4,,5/7,,5/7,,2/6,,5,,3,,4/7,,6,,5,,4,,3,,1h[8:4]/2h[8:8],,,,,,,,,,,,,,,,8x,,,,8x,,,,2,6,3,5,1b/Cf,,,,3/7,,5,,4,,3,,2/6,,4,4,5,,6,,2b/7b,,8,1,8,,2b/7b,,3,4,3,4,3,,2/5,,1b/6b,,8,,7,,6,,2/5,,4,4,3,,2,,1b/8b,,7,8,7,,7b,,6,5,6,5,6,,4/7,,3b/8b,,2,1,2,,3/8,,2,1,2,,3/8,,4,,5/7,,6,6,6,,5/7,,6,6,6,,5/7,,4,,
{32}
3/8,2,1h[8:2],,,,,,,,,,8,7,6,5,4h[8:3],,,,,,,,8,1,2,3,,,,,
{16}
2b,4,3,4,2b,5,4,5,1b,4,3,4,2b,6,5,6,7/2,,4,,5,,6,,7/3,,5,5,4,,3,,7b/2b,,1,8,1,,7b/2b,,6,5,6,5,6,,7/4,,8b/3b,,1,,2,,3,,7/4,,5,5,6,,7,,8b/1b,,2,1,2,,2b,,3,4,3,4,3,,5/2,,6b/1b,,7,8,7,,6/1,,7,8,7,,6/1,,5,,4/2,,3,3,3,,4/2,,3,3,3,,4/2,,5,,
{32}
6/1,7,8h[8:2],,,,,,,,,,1,2,3,4,5h[8:3],,,,,,,,1,8,7,6,,,,,
{16}
3,4,3,6,5,6,2,3,2,7,6,7,1,8,1,8,2bq5[8:8]/7b,,,,,,,,,,,,,,,,C,,,,B8,,,,B2,,,,B5,,,,
{32}
E3,E4,,,,,,,,C,,,,,,,,E1,,,,,,E8,,,,,,E7,,E6,E5,,,,,,,,,,,,,,,,,,,,,,,,,,E3,,,,C,,,,E7,,,,,,,,,,,,,,,,,,,,,,,,,,,,,,,B1,B2,E3,,,,,B4,,,,,,,,,B8,B7,E7,,,,,B5,,,,,,,,,3,,,,,,,2,,,,,,,,2h[8:8],,,,,,,,,,,,,8-4[8:3],,,,8,,,,,
{16}
,,,,,,,,,3,,4,,2q7[8:2]/5,,,,,,,,,,,,,,,,8-4[8:2]/6,,,,,,,,7p2[8:2],,,,7,,,,5h[8:2],,,,,,,,1,,,1,,,1,,1<1[8:4]*>1[8:4],,,,,,,,,,,,,,,,
{32}
B1,C,B5,,
{16}
,,,,,,,,,,,,,,4,,,,6,,,,3h,,,,5h,,,,2,4,2,4,2,4,2,4,2,4,2,4,2,4,2,4,1h[8:1],,,,,,,,,,,,3,,4,,2,4,1,4,1,4,1,4,1,4,1,4,1x,,5h,,8h[8:6],,,,,,,,,,,,,,,,,,
(236)
4b>8[8:4]/5b,,,,5,,5,,,,6,,,,7-3[8:2],,,,,,,,2-5[8:2],,,,,,,,6<1[8:2],,,,,,,,5h[8:3],,,,,,,,,,2-6[8:2],,,,,,4,,4,,,,3,,,,1b>4[8:2],,,,8,,8,,,,7,,,,6-2[8:2],,,,,,,,4h[8:3],,,,,,,,,,1-5[8:2],,,,,,,,3h[8:2],,,,,,,,3/4,,3/4,,,,1-3-5[8:1]/5-7[8:1],,,,,,,,,,6/8,,,7,,,7,,4/6,,,5,,,5,,3/1,,,2,,,2,,3/5,,,4,,,4,,5/7,,,8,,,8,,1/7,,,2,,,2,,3/4,,,5,,,5,,6/7,,,8,,,8,,
{16}
1/2,,3,,2/8,,7,,1/6,,2,,3/8,,7,,2/6,,3,,4/7,,6,,2/5,,3,,4/6,,4/5,,4,5,3,6,4,5,3,6,2,7,1,8,1,8,1,8,
{32}
1,2,3,4h[8:4],,,,,,,,,8,7,6,5h[8:1],,,,,,,,,3x/6x,2x/7x,1x/8x,,,,,,1bx,,,,1bx,,,,8x/1hb[8:1],,,,,,,,2/1h[8:1],3,4,,,,,,1h[8:1]/8,7,6,,,,,,1/8h[8:1],2,3,,,,,,8h[8:1]/7,6,5,,,,,,2/8h[8:1],3,4,,,,,,1h[8:1]/7bw3[8:1]b,6,5,,,,,,7b,,,,,,,,1h[8:1]/5h[8:1],,,,,,,,1/5,,,,,,,,2/6,,,,2,,,,3/7,,,,3/7,,,,4/8,,,,4/8,,,,
{16}
3,1,3,1,3,1,3,1,2-6[8:1],,2,,8-4[8:1],,8,,1,6x,,,1-5[8:1],,7,,1x-3[8:1]*-7[8:1],,,,1,,,,4bx/6bx,,5,5,5,5,5,,3/7,,2,,1/7,,6,,8,,8,,8,,8w4[8:1],,,,,,,,,,2,6,1,7,8b,,,,7-3[8:1],,,,7/8,,,,1-5[8:1],,,,1,8,,,6-2[8:1],,,,6/5,,,,1w5[8:1],,,,1x,,,,3-8[8:1]/7,,,,7-4[8:1],,,,2-5[8:1],,,,6-1[8:1],,,,3-7[8:1],,,,3,,,,8w4[8:1],,,,8x,,,,2b-6[8:1]/6b,,,,2/1,,,,8-4[8:1],,,,8,1,,,3-7[8:1],,,,3/4,,,,8w4[8:1],,,,8x,,,,2b/6b,,,1b/7b,,,2b/8b,,3b/7b,,,4b/6b,,,5b/3b,,1-5[8:1],,,,5-1[8:1],,,,1xw5[8:1],,,,,,,,
{24}
2,3,8,7,2,3,8,7,1,2,8,7,1,2,8,7,1,2,7,6,1,2,7,6,2,3,7,6,2,3,7,6,2,3,6,5,2,3,6,5,3,4,6,5,3,4,6,5,1,2,6,5,1,2,6,5,2,3,7,6,2,3,7,6,3,4,8,7,3,4,8,7,1,2,7,6,1,2,7,6,2,3,6,5,2,3,6,5,2,3,8,7,2,3,8,7,3,4,7,6,3,4,7,6,1,2,8,7,1,2,8,7,2,3,7,6,2,3,7,6,3,4,6,5,3,4,6,5,2,3,7,6,1,2,8,7,1,2,8,7,1,2,8,7,
{16}
Ch[8:4],,,,,,,,,,,,,,,,1x,,,,1x,,
{24}
,,,2,3,4,7,6,5,
{16}
4/1b,,,,2v5[8:1],,2,,1,,8,,6v1[8:1],,6,,5,,4,,3v6[8:1],,3,,2,,1,,8,,7-4[8:1],,7,,8,,1,,2-5[8:1],,1,,2,,8,,6v1[8:1],,5,,6,,3v8[8:1],,4,,3,,5,,6,,7,,8x,1,2,3,4-8[8:1],,4,,7-3[8:1],,7,,2-6[8:1],,2,,5-1[8:1],,5,,3-7[8:1],,3,,8-4[8:1],,8,,1-5[8:1],,1,,8,,8h[8:1],,
{24}
3,4,2,4,,,6,5,7,5,,,,,,,4/8,3/7,2/6,1/5,,,,,2,1,3,8,,,,7,8,6,1,,,,,,,,4,5,4,5,3/6,2/7,1h[8:8]/8h[8:8],,,,,,,,,,,,,,,,,,,,,,,,,,,1h[8:8]/7h[8:8],,,,,,,,,,,,,,,,,,,,,,,,,,,1h[8:8]/6h[8:8],,,,,,,,,,,,,,,,,,,,,,,,,,,1h[8:8]/5h[8:8],,,,,,,,,,,,,,,,,,,,,,,,,,,1/5,2/6,3/7,4/8,1b-7-5q1z5s1<5[8:220]b/5b-3-1q5z1s5>1[8:220],,
{2}
,,,,,,,,,,,,,,,,,,,,,,,,,,,,,,,,,,,,,,,,,,,,,,,,,,,,,,,,,,,,,
{8}
,,,,,,,8z4<8[8:120]b*s4>8[8:120],,,,,,,,,,,,,,,,,,,,,,,,,,,,,,,,,,,,,,,,,,,,,,,,,,,,,,,,,,,,,,,,,,,,,,,,,,,,,,,,,,,,,,,,,,,,,,,,,,,,,,,,,,,,,,,,,,,,,,,,,,,,,,,,,,,,,,,,,,,B7/Ch[16:1]/B2/E2/E8/E1/B6/B3/E4/E6/E5,
