&title=ベストヒット ボカロメドレー
&artist=マイキ/ずま/鈴木瑛美子/松浦航大/おしら/なかねかな/おかのやともか/たすくこま/竹渕慶
&first=0
&des_5=ボカロ譜面隊
&lv_5=13
&clock_count=4
&inote_5=(164){1},,
{4}3/6,B4/B5,3h[2:1],E5,
{4}6h[2:1],E5,3h[2:1],E5,
{8}5,5,4,4,5,5,4,4,
{8}6,6,3,3,6,2b,2b,,
{8}1-4[8:1]/8-5[8:1],,,,3,2-4[8:1]/5,,1,
{8},6,4/7-5[8:1],,8,,3,,
{8}2x/8x,3x/7x,,,1x/7x,2x/6x,,4/5,
{8},3/7,,2/6,2-5b[8:1]/6-1b[8:1],,,,
(145)
{8}8x<3[4:1],,,,1,,1/8,7,7h[4:1],
{8},5h[4:1],,4h[4:1],,3,,
{8}1,2,3,4,5,6,7,8,
{4}1b/8b,,C,,
{4}1-6[8:1]/2-5[8:1],1b/2b,7-4[8:1]/8-3[8:1],7b/8b,
{8}1/2,4,7/8,5,1<6[8:1]/2>5[8:1],,,,
{8}7/8,6,4/5,3,1/2,,4/8,3/7,
{4}2/6-2[8:1],1-5[8:1]/6x,1x/8-4[8:1],3/8x,
{16}1>4[8:1]/6,,,7,7,,8,,1<6[8:1]/5,,,3,3,,2,,
{16}1-5[8:1]/5,,,6,6,,7,,4/8w4[8:1],,,,,,,,
{8}3hx[2:1],4,5,6,7h[2:1],4,3,2,
{4}1-5[8:1],1/8-4[8:1],2^7[8:1]/8,2/7,
{4}5-2[8:1]/6-1[8:1],5b/6b,3-8[8:1]/4-7[8:1],3b/4b,
{8}5/6,8,3/4,1,5>2[8:1]/6<1[8:1],,,,
{8}3/4,2,8/1,7,5/6,,8/4,7/3,
{4}6/2-6[8:1],5-1[8:1]/2x,5x/4-8[8:1],7/4x,
{16}8<5[8:1]/3,,,2,2,,1,,8>3[8:1]/4,,,6,6,,7,,
{16}8-4[8:1]/4,,,3,3,,2,,5/1w5[8:1],,,,1b,,,,
{8}6x,1/2,3,7/8,6^3[8:1],2,1,8,
{8}8w4[8:1],,8,,{12}2bx/7bx,2bx/7bx,2bx/7bx,
(150)
{16}2bx/7bx,,,,2hx[8:3]/5x,,,,5,,,,5,4,6h[8:3],,
{8}4,,4h[4:3],,5,,5h[4:1],,
{8},4/5,,1/8,1-5[8:1]/8-4[8:1],,1/8,,2/7,
{8}3,3/8bx,3,3/8bx,3,8bx-4[8:1]/3,,
{8},,2/6,3/7,2-5[8:1]/6-1[8:1],3/7,2/6,,
{16}3/7,,2/6,,3^8[8:1]/7,,2/6,,3/7,,,6,6,,5,,4,,3,4,
{16}2,,6,5,7,,7,,7/8,,1/6,,2/5,,3/4,,
{8}2-5[8:1]/6-1[8:1],,2x/6x,,3/7-3[8:1],,3x/7x,1h[4:1],
{16},,8,1,8,,4,,3<6[8:1],,7,,3,,8h[4:1],,
{16},,1,8,1,,5,,6x>3[8:1],,2x,,1x/6x,,1x,,
{8}3/7,2/6,3-8[8:1]/7-4[8:1],2/6,3/7,,2/6,3/7,
{8}2b/6x,,3x/7b,,
{8}(144)2b/6x<5[128:79],,B4h[128:71]/B5h[128:71]/C1h[128:79],
(136),
(128),
(114),
(102)
{24},,,,,,4x,5bx>1b[8:1]*^8b[8:1],,3bx/6bx,,3bx/6bx,
{8},,
1/8,D4/A3/A4/B3/B4/C1,1/8,D6/A6/A5/C1/B6/B5,{24}2/8,,2/8,,,1/7,1/7,,,8,,8,
{8}1,3/5,4/6,5/7,{12}8b/7bx,5bx/6b,3bx/4b,1bx/2b,,,
{24}6<1[8:1],,6,5,,,4x,,,4x,,,3>8[8:1],,3,{8}4,5x,5x,
5/6-8b[8:1],4/5,5/6,4,{24}3>8[8:1],,3,4,,4x,{8}3x,,
1/8,D6/A6/A5/C1/B6/B5,1/8,D4/A3/A4/B3/B4/C1,{24}1/7,,1/7,,,2/8,2/8,,,1,,1,
{8}8,5/7,4/6x<2[4:1],3/5,{12}3,4,5,6,,,
{24}3-8-4[4:1],,3,4,,,5x,,,5x,,,6-1-5[4:1],,6,{8}5,4x,4x,
{512}3p2-8-6-4[2:1],,,,,,,,{64},,,,,,,{8}4,5x,6x,7x,,,
{24}1b-3-8-4-7-5[96:61]/8b,,1b/8b,
(105){8},
(108),
(111),
(113),
(115),,,,4/5-3[8:1],,2h[24:5],,
2,2,2/4,3/5,
{8}6/4-6[8:1],,7h[24:5],,7,7,5/7,4/6,
{24}3-1[8:1],,,3,,,7,,,,,8,1/8,,,2/7,,,3>5b[8:3]/6<4b[8:3],,,,,,
{8}A3f/A6,,,,,1/8,7-3[8:1]/8^2[8:1],1/6,
{24}7bx-5[8:1]/8bx-4[8:1],,,,,,7x/8x,,,,,,4x/5x,,3,4,,,1^7[8:1]/2-6[8:1],,,3/8,,,
{24}1bx-5[8:1]/2bx-4[8:1],,,,,,1x/2x,,,,,,4x/5x,,6,5,,,4h[4:1]/8,,,,,,
{8}7<4[8:1],6,7/2-6[8:1],3,2/8-4[8:1],7,8/1-5[8:1],2,
{24}1/5,,,7,,7h[8:1],,,5,6,,,4/5,,,3/4,,,1^7[8:1]/2-6[8:1],,,3/8,,,
{24}1bx-5[8:1]/2bx-4[8:1],,,,,,1x/2x,,,,,,4/5,,6,5,,,7-3[8:1]/8^2[8:1],,,1/6,,,
{24}7bx-5[8:1]/8bx-4[8:1],,,,,,7x/8x,,,,,,2x/4x,,2,4,,,1/5h[4:1],,,,,,
{8}3>8[8:1],2,3/6-1[8:1],7,6/3-7[8:1],2,3/6,5,
{24}6/8,,,2,,2h[8:1],,,4,3-5-2-6[8:3],,,6,,,7,,,8<1[2:1],,,8,,,
{8},,,,C1h[16:14],(120),,
(123),
(128)B2h[16:7]/B3h[16:7]/B6h[16:7]/B7h[16:7],
(135),
(142),,,,18,2V48[4:1]/7,34,25,7,6h[8:1],1,2-5[8:1]/5,34,
7V51[4:1]/2,8,47,2,3h[8:1],8,1bx/7bx,1bx/7bx,
26,3/7h[8:1],5,2h[8:1]/6,4,3/8h[8:1],5,17,2,36,47,8-5b[8:1]/5,4,8b/3bh[4:1],,6x,
7V51[4:1]/4,85,74,2,3h[8:1],8,7-4[8:1]/4,56,
2V48[4:1]/7,1,25,7,6h[8:1],1,2bx/8bx,2bx/8bx,
3/7-1[8:1],4,5-3[8:1],4,6-2[8:1],7,2,3,4,8^5[8:1]/5x^2[8:1],,5/8x,,1bx/7b,,
(158),
(178),
(205){4}2x^4[8:1],7x^4[8:1],8x>4[8:1],,
{4}5bx/6b,2b/5b,8b/4b,,
{8}1x-5[8:1],,1,8-4[8:1],,8,,1>5[8:1],
{8},1,7-3[8:1],,1b,,5/4,,
{16}1x,,6,5,6,,1x,,8x,,3,4,3,,8x,,
{8}2hx[4:1],,1v4[8:1],1,1v6[8:1],,,,
{8}8-4[8:1],,8,1-5[8:1],,1,,8<4[8:1],
{8},8,2-6[8:1],,8b,,4/5,,
{2}3h[8:3]/6h[8:3],3x-5[8:1]/6xv3[8:1],
{2}3xv6[8:1]/6x-4[8:1],7/2,
{8}7x-4[8:1],,7,8-3[8:1],,8,,5-8[8:1],
{8},5,2h[4:1],,4b,,4/5,,
{16}8x,,3,4,3,,8x,,1x,,6,5,6,,1x,,
{8}7hx[4:1],,8v5[8:1],8,8v3[8:1],,,,
{8}2^5[8:1],,2,1^6[8:1],,1,2,2,
{8},1/7,2^4[8:1]/6^4[8:1],,,,,,
{2}2xv7[8:1]/7x-1[8:1],2x-8[8:1]/7xv2[8:1],
{4}1x^3[8:1]/8x^6[8:1],1x-5b[8:1]/8x-4b[8:1],
{8}1x/8x,,(170),,,,1,2,3/5,,6,6,
,7b/8b,5b/6b,3b/4b,2b/1b,,2-5[8:1]/6-1[8:1],,
2/6,,3b/7b,,2,1,8<5[8:1],7,
1>4[8:1],2,8w4[8:1],,,,3x/5x,2x/6x,
1x/7-3[8:1],,3,4>1[8:1],,{512}4/5V71-3[8:3],,,,,,,,{64},,,,,,,
{8},5,
,4,4,,2/4,3/5,4^1[8:1]/6,,
4/7^4[8:1],,7/1-5[8:1],,1/8^5[8:1],,8/3,3,
{4}3/5-1[8:1],4/5,5-1[8:1]/8-4[8:1],5x/8x,
6h[4:7],5<4[4:1],,,
{48}D8,A8,D1,A1,D2,A2,{8}D3,,,{48}D8,A8,D1,A1,D2,A2,{8}D3,5,5,
4/7,,3>7[8:1],,7>3[8:1],5,5,,
6,7,8/2,,3>1[8:1]/7<5[8:1],,3/7,,
2<8[8:1]/6>4[8:1],,2/6,,1<7-2[4:1]/5>3-6[4:1],,1/5,,
,,3x/7x,,2,2,{4}4<8[4:1],
8>4[4:1],4,8,2/6h[4:1],
4h[4:1],2h[4:1],1,7-3[8:1],
7/4-1[8:1],4/5-8[8:1],5/3-6[8:1],3/7-2[7:1],
7/4,1/5,{8}4-2b[8:1]/6-8b[8:1],3/7,,,
(185)2bx/8bx,,{8}4/5,4/5,6,6,4/5,4/5,
{8}4/5,3/6,2/7,1b,8V64[8:1],4>5[8:3],8,C1f,
{8},,,,1-5[8:1],,7,7>2[8:1],
{8},4,4w8[8:1],,4x,,,8,
{8}1,2/4,5,4/6-2[8:1],,3-8[8:1]/6,,3/7pp4[8:3],
{8},2,2,,3,,2b/6b,4b/8b,
{8},,,3,3-8[8:1],,7,7-4[8:1],
{8},3,3h[4:1],,5,6,7/8,1,
{8}2/4,5-8[8:1],,4-1[8:1],,5p4[8:3],,1bx,
{8},,,,1V35[8:1],5<4[8:3],1,C1f,
{8},,,,8-4[8:1],,2,2<7[8:1],
{8},5,5>2[8:1]*<8[8:1],,5x,,,1,
{8}8,5/7,4,3-7[8:1]/5,,3/6-1[8:1],,2qq5[8:3]/6,
{8},7,7,,6,6-2[8:1],,1-5[8:1]/6,
{8},1,,7,7-3[8:1],,1,1-5[8:1],
{8},8,8h[4:1],,1,8,5/7,4,
{8}6,3,2/4,1,1,5-8[8:1],,5-2[8:1],
{8},5x,,8,8,4,5,2b-4V68q1>8[24:47]/7b,
(200),,,,,,,,,,,,,,,,,,,,3x/4x,,2b/5b,,
{8}6,5,3/4-8[8:1],,1,1,2-5[8:1]/7-3[8:1],,
{8}2x/7x,,2/6,,5,5,3/7,,
{4}1-5[8:1]/8-4[8:1],1x/8x,1>4[8:1]/8<5[8:1],1x/8x,
{8}1/8,,B4/E4/B5/E6,,8,8,3/7,,
{4}2-6[8:1],2/8-4[8:1],1-5[8:1]/8,1/7-3[8:1],
{8}1,1,2/6,,4/7,6,2/5,,
{4}3-7[8:1],6-2[8:1],1V35[4:1],5s1[4:1],
{16}8h[4:1],,,,,,,,1,8,1,8,2b,,,,
{8}3,4,5-1[8:1]/6,,8,8,2-6[8:1]/7-4[8:1],,
{8}2x/7x,,3/7,,4,4,2/6,,
{4}8-5[8:1],1-4[8:1],7-5[8:1],2-4[8:1],
{8}8,8,3/7,,2/5,3,4/7,,
{4}3-1[8:1],6-8[8:1],4-1[8:1],5-8[8:1],
{8}4,,2/6,,1,1,2-6[8:1]/8,,
{4}1x-5[8:1],8x-4[8:1],7x-3[8:1],1hx[4:1],
{8}8b,,3b/7b,,2/4,3,5/6,7,
(164){16}2x,1,2,1,3x,8,3,8,4x,7,4x,7,5x,6,5hx[4:1],,
{8},4,,1/8,1/8,,3x/6x,,
{16}4-1[8:1]*-7[8:1]/5,,,,4b,,,,6h[16:3]/8,,,4h[16:3],,,2-5[8:1]*-7[8:1],,
{16},,2,,,,4/6,,4/6,,,2,,,1/7,,
{16}6-2[8:1],,8-4[8:1],,6,,8,,7hx[16:3],,,5,,,4/5s1[8:3],,
{8},2,2,2,2,3/8,2/7,1/6,
{8}5-8[8:1]/8-3[8:1],,5b/8b,,2/7,2/7h[4:1],,4>7[8:3],
{8},6,5,4,3,,5,6,
{8}1-5[8:1]/7,,1b/2x,,5/6,4/7,3/8,1/2,
{8},4/5,,2/6,2-4[8:1]/6-4[8:1],,,,
{16}3x,4,3,4,,1x,8,,6x,5,6,5,,8x,1,,
{8}3-7[8:1],6-2[8:1],3,6,1b,,7-2b[4:1],,
{4}2-5b[4:1],5-8b[4:1],8-3b[4:1],3,
{8}B4/E4,B7/E8,B2/E2,B5/E6,1h[4:1],,3,,
{8}5-2[8:1]*-8[8:1],,5b,,1/7,1-4[8:1]/7,,5,
{8},3/4,1/2,7/8,5/6,,3/5,6,
{8}1-5[8:1]/7,,1b/2x,,5/6,7/8,1/2,3-8[8:1]/4-8[8:1],
{8},,,7,6,5,4,3,
{8}2x/8x,4x/6x,,,1x/7x,3x/5x,,1/6,
{8},3/8,,1/5,1h[4:1]/5-1[8:1],,5b,,
{8}2>6[4:1]/8,,6bx<2[4:1],,2,2,,1qq6[2:1]/3,
{8},5,4,3,2h[8:3],,7,8,
{8}1<5[4:1]/3,,5bx>1[4:1],,1,1,,2pp5[2:1]/8,
{8},5,6,7,8,1x,1x/4x,,
{8}1/7<3[4:1],,3bx>7[4:1],,7,7,,6/8pp3[2:1],
{8},4,5,6,7h[8:3],,2,1,
{8}6-3[8:1]/8-3[8:1],,6/8,,2/5,3/6,4/7,5/8h[2:1],
{8},7,5,4,2-5[8:1]/8-5[8:1],,2b/8b,,
{1},
{1},
{1},
E
