&title=「妖怪録、我し来にけり。」
&artist=TEZUKApo11o band ft. ランコ(豚乙女)+OFFICE萬田㈱
&first=0
&des=はくこう
&lv_5=13+
&inote_5=(206)
{1},,
{12}2,,6,4x,,7,7,,3,5x,,2,
{12}2,,8,1xb,,,6,5,6,3,4,3,
{12}5xb>1[8:6]/4xb,,,,,,,,,,,,
{12}4<8[8:6],,,,,,,,,,,,
{12}5p1[16:10],,,,,,,,,,,,
{12}4q8[16:10],,,,,,,,,,,,
{12}5>2[16:8]/B8/E1,,,,,,B6,,,,,,
{12}4<7[16:8]/B1/E1,,,,,,B3,,,,,,
{12}8x/5x,,,1x/3x,,,7x/8x,,6,5x,,3,
{12}4x,,,8xb/1xb,,,3,4,3,6,5,6,
{12}4b/5b,,,3,,3,4,,4,2,,28,
{12},,1-5[48:7],1,,6,,,7-4[48:7],7,,3,
{12},,3,3h[6:1],,4,2,5,3,6,4,7,
{12}5h[4:1],,,7h[4:1],,,1x,,2x/8x,,3x/7x,,
{12}6,,6,5,,5,7,,7,1,,1,
{12}8-4[48:7],,,2,,,3-6[48:7],,,6,,,
{12}7,,7,5,,5,8,,8,1,,1,
{12}7,4,5,2b,,,1-5[48:7]/7-4[48:7],,,17,,,
{12}2xbh[4:3],,,,,,B4,,,B6,,,
{12}8xh[4:3],,,,,,B5,,,B3,,,
{12}2xh[4:1],,B3,B4,,,6xh[4:1],,B6,B5,,,
{12}4x,,,5bp4>6[32:47]/8h[4:7],,,,,,,,,
{12},,,,,,,,,,,,{24}D6,B5/A5,E5/D5,B4/A4,E4/D4,B3/A3,
{12}D3,,,7x,,7x,,7x,,
{12}6x^3[16:10]/3b,,,,,,,,,2,,,
{12}2^7[16:10],,,,,,6,,,6,,,
{12}5-8[16:8],,,,,,1,,,1,,,
{12}7-5[16:6]/2-4[16:6],,,,,,,,,,,,
{12}3^6[16:9]/6,,,,,,7,,,7,,,
{12}8p3[16:9],,,,,,2,,,2,,,
{32}1xh[4:3],8x,7xh[32:22],,,,,,{12},,,,,,,,,
{12}4x-2[8:1],,,,,,4x-7[16:3],,,,,,
{12}3h[2:1],,,,,,4,,4,3,,,
{12}6h[2:1]/4,,,,,,5,,5,6,,6,
{12}2h[2:1],,,,,,4,,4,2,,,
{12}7h[2:1]/5,,,,,1,1xb,,8,1,,,
{12}6b,,6,5,,,2,,2,4,,,
{12}7,,7,5,,,3,,3,4,,1,
{12}8,,8,,,7,5,,5,6,,6,
{12}E5,E4,E3,E7,E8,E1,B4/B5/E5f,,,,,,
{12}2xb-4[8:1],,,8,,,1-5[8:1],,2,2,,,
{12}1x-3[8:1],,,7,,,8-4[8:1],,1,1,,,
{12}8x,,7,5,,5,6,,,1p4[32:9]/8q5[32:9],,,
{12},,,,,,6,,6,5,,5,
{12}7xb-5[8:1],,,1,,,8-4[8:1],,7,7,,,
{12}8x-6[8:1],,,2,,,1-5[8:1],,8,8,,,
{12}1x,,2,4,,4,5,,5,7,,7,
{12}4x-2b[32:3],,,5x-7b[32:3],,,4x-1b[32:3],,,5x-8b[32:3],,,
{12}4bh[1:3],,,,,,,,,,,,
{12}6,,,,,,,,,,,,
{12}2,,,,,,8,,,,,,
{12}B7,B6,B5,B1,B2,B3,D1,D8,D7,D3,D4,D5,
{12}1xb/5xb,,,,,,,,,,,,
{16}6xbh[8:3]/5xb,,,,,,2xbh[8:3],,{12},,,7x-5[8:1],,,
{12}4x-7[8:1],,,2x-8b[8:1],,,8x-3b[8:1],,,7x-4[8:1]*-5[8:1],,,
{12}7xb,,,,,,C1h[4:1],,,,,,
{12}2xb-7[8:1]/7xb,,2,5^8[8:1],,5,1q5[8:1],,1,7pp4[16:11],,7,
{12},,,5,,,3,,,1,,,
{12}4-7[8:1]*-1[8:1],,,4,,,7x,,5,6,,5,
{12}8,,4,7,,4,1,1,2,8b,,,
{12}3-6[8:1],,3,7-2[8:1],,7,4^1[8:1],,4,8,,8,
{12}2x,,4,3,,4,1,,5,2,,5,
{12}8w4[8:1],,,8,,,2/6,,1,8,,3/7,
{12},,56,6xb,,2,,,54,5xb,,2,
{12}4-8[8:1],,4,3,,,1,,2,7,,7,
{12}5-1b[8:1],,5,6,,,8,,7,2,,2,
{12}6,,6,5,,5,4,,4,3,,3,
{12}1^6[8:1],,,4-8[48:7],,,4xh[4:1],,,,,,
{12}6xb-1[8:1]/3xb,,,2-5[8:1],,,8-4[8:1],,,3-6[8:1],,3,
{12}7-2[8:1],,7,4^1[8:1],,4,8^5[8:1],,8,2x,,2,
{12}4b,,7,5b,,1,3b,,8,6b,,1xbq5[8:1]*p5[8:1],
{12},,,,,,4x^2[12:1]/6x^8[12:1],,,,,,
{12}1,,2,8,,4,6,,1,
{12}1q7[48:19],8,2>6[48:11],1b,,,,,,,,,,,,
{12}5h[4:1]/6,,,7,,,5h[6:1]/4,,2,4,,,
{12}3h[6:1]/4,,6,5,,,1xb/8xb,,,,,,
{12}6-8[48:5]/5,,,,,,3-1[48:5]/4,,,,,,
{12}6-8[48:5]/5,,,,,,1xb/8xb,,,,,,
{12}4h[4:1]/3,,,2,,,4h[6:1]/5,,7,5,,,
{12}6h[6:1]/5,,3,4,,,5xb/4xb,,,,,,
{12}3-1[48:5]/4,,,,,,6-8[48:5]/5,,,,,,
{12}3-1[48:5]/4,,,,,,5xb/4xb,,,,,,
{12}3h[6:1],,4,2,,,1xb/2xb,,,,,,
{12}6-8[48:5],,,5-1[8:1],,,8xb,,,,,,
{12}6h[6:1],,5,7,,,5xb/6xb,,,,,,
{12}3-1[48:5],,,4-8[8:1],,,3xb,,,,,,
{12}5h[4:1]/6,,,7,,,5h[6:1]/4,,2,4,,4,
{12}3-1[48:5],,3,5-7[48:5],,5,4-8[8:1],,4,6-3[8:1],,,
{12}6x/2-7[8:1],,,2x/5-8[8:1],,,5x/1-4[8:1],,,1x/7,,,
{12}8,,8,2z6b[16:5],,6,,,,,,,
{12}5x-1[64:7]/7x^4[64:7],,,,,,8x-3[64:7]/4x-8[64:7],,,,,,
{12}6x<2[6:1],,,4xv1[48:7],,4xv7[48:7],,,,,,,
{12}2x-5[8:1],,,,,,1xv2-4[24:7],,,,,,
{12}8xz4[24:7],,,,,,7x-5v3[24:7],,,,,,
{12}8xbh[256:1],,,2h[256:1],,2h[256:1],4h[256:1],,,1h[256:1],,2h[256:1]/8h[256:1],
{12},,3h[256:1],7h[256:1],,7h[256:1],5h[256:1],,,8h[256:1],,,
{12}2h[256:1]/6h[256:1],,7h[256:1],1h[256:1],,,3h[256:1]/5h[256:1],,3h[256:1]/5h[256:1],,,1bh[256:1],
{12},,,2h[256:1]/8h[256:1],,,6h[256:1],,6h[256:1],4h[256:1],,4h[256:1],
{48}A7,B7,C,B3,A3,,,,{12},,,,,,,,,
{48}A1,B1,C,B5,A5,,,,{12},,{16},,{48}A4/A8,D4`D8,A3`A7,D3`D7,A2`A6,D6`D2,{12}1xb/5xb,,,,,,
{12}3x/D6/E6/A5f,,,7x/B3/B4/E4,,,1x/D8/E8/A8,,,E2/E3/A2f,,E7/B6/A6f,
{12},,,Ch[4:1],,,8x,,8x,,8x,,
{12}8xb/1xb,,,2,5,4,7,,,18,,,
{12}2,4,3,7,5,6,1bh[4:1],,,7,1,5,
{12}8,8,6,1,1,5,2,2,4,3xb,,3x,
{12}7b,,2,8,5,6,{16}2,,4,,3-8[2:3],,7pp4[24:57],,
{1},,,
{24}A6/4h[4:3],D6,A5,,,,,,,,,,,,,,,,,,,,,,
{24}E3/6h[4:3],B3,B4,,,,,,,,,,,,,,,,,,,,,,
{24}B8/2h[4:3],C1,B4,,,,,,,,,,,,,,,,1,,,,7b/2b,,
{12},,,,,,1x/8x,1x/8x,1x/8x,1x<3[64:19]/8x,1x/8x,1x/8x,
{12},,,6xb,,,1x,,4,2,,4,
{12}8x^3[8:1],,,5x^8[8:1],,,2x-6[8:1]*-5[8:1],,,,,,
{12}8x-4[8:1],,,83,,1xh[4:1],,,8,1,,2x/7x,
{12},,56,6x,,2,,,34,3,,7,
{12}5x-1[8:1],,5,6x,,,8,,6,2,,2,
{12}4-8b[8:1],,4,3,,,1,,3,7,,7,
{12}5-1[8:1],,5,6-8[48:5],,6,4-2[48:5],,4,7,,7,
{12}1^4[8:1],,,5-8[8:1]*-2[8:1],,,5,,,3x/7x,,,
{12}2xb/8xb-5[8:1],,,3-8[8:1]/8,,,6-3[8:1]/3,,,16,,2x-6[8:1],
{12},,,5^8[8:1],,5,1^4[8:1],,1,7xh[4:1],,,
{12}5b,,2,4b,,8,6b,,1,3b,,8xbp4[8:1]*q4[8:1],
{12},,,,,,5x^7[12:1]/3x^1[12:1],,,,,,
{32}2xb,3x,4x,5x<8[24:9],,,,,,,,,,,,,{12},,,,,,
{32}1x,2x,3x,4x<8[24:10],,,,,,,,,,,,,{12},,,,,,
{32}8xbqq1[32:28],1x,2x,3x<8[32:25],,,,,,,,,,,,,{12},,,,,,
{12},,,,,,7,8,7,2,1,2,
{12}8b/1b,,,6,,6,5,,5,7,,71,
{12},,8-4[48:7],8,,3,,,2-5[48:7],2,,6,
{12},,6,6h[6:1],,5,7,4,6,3,5,2,
{12}4h[4:1],,,2h[4:1],,,8x,,7x/1x,,6x/2x,,
{12}3,,3,4,,4,2,,2,8,,8,
{12}1-5[8:1],,,7,,,6-3[8:1],,,3,,,
{12}2,4,3,6,5,7,1,4,3,8,5,6,
{12}1,8,1,7xb/2xb,,,5,3,5,4,6,4,
{12}8xbh[4:3],,,,,,B4,,,B4,,,
{12}A6f/B6/E6/B4,,,A2f/B2/E3/B4,,,A8f/E8/B8/B4,,,1xb,,,
{12}2,,6,5x,,7,71,,3,4x,,2,
{12}28,,5,4xb,,,27,,,1bq4[8:13]/3b,,8b/6bpp5[24:35],
{12},,,,,,,,,,,,
{12},,,,,,,,,,,{24}E4,E5,E6,
E
