&title=囍
&artist=葛东琪
&first=-0.28
&lv_6=14
&des_6=MeowHell(14.3)
&inote_6=
(85){4},,{2}7<5[8:1]*pp2[2:3],
{4}4>2[8:1],4pp7[4:3],,,,,{2}6<8[8:1]*qq3[2:3],
{4}1>3[8:1],1qq6[4:3],{12},,,,,,,,,,,,7qq4pp7[4:5],
A1,A2,A3,E1,E2,
E3,B1,B2,B3,E1,E2,E3,A1,A2,A3,A1,B1,
{16}Ch[6:1],,,,,6pp4[16:5]/3qq5>6[4:3],,,,6/3,,,,,,,,6V84-2[2:1],
,,,,,,,2z6[16:11]*s6[16:11],{1},{4},{16},,{32}6h[32:9],
,,5,,,{16}4,{32},3pp3[4:1],,,,,,,6,,,7,,,{16}8,{32},1pp1[32:9],,,,,,,5,
,,6,,,{16}7h[16:9],{4},,{64}B2,B3,{32}B4,,,,,,,3h[32:9],
,,4,,,{16}5,{32},6qq6[4:1],,,,,,,3,,,2,,,{16}1,{32},8<4[32:7],,,,,,,4qq1[8:5],
,,,,3,,,,2h[16:9],{4},,{16},,,{32}7h[32:9],
,,8,,,{16}1,{32},2qq2[4:1],,,,,,,7,,,6,,,{16}5,{32},4qq4[32:9],,,,,,,8,
,,7,,,{16}6h[16:3],,,,,,,,,{4}C/B6/B2/B8/B4,
{32}2h[32:9],,,1,,,{16}8,{32},7pp7[4:1],,,,,,,2,,,3,,,{16}4,{32},5<1[32:7],,,,,,,1q4[2:1],
,,,,2,,,,3h[8:1],{4},,{16},,Ch[16:1],
,,6/5,4/7h[8:1],,2,4/2,3,7/5,5,6/5,1,8/7V14[32:3],1/8,{8}1/2h[8:1],
{4}7-5[16:1],{16}7/1x-3[32:1],1x-7[32:1],1x-4[32:1],1x-6[32:1],1x-5-7-3[8:1],1x,1x,1x,{4}1x,
{16}4/6pp8[16:1],4/6,4-2-8v3-5[4:1],4/6,{8}4/6x,4x,{16},,,,8x-6[32:1],1x-5[32:1],8x-4[32:1],1x-3[32:1],
8xp5[8:1],1x,8x,1x,{8}8x,{16}3,3,2,2,{8}1s5[8:1],{16}5-3v2[8:1],5,6,6,
7h[16:1],,,6/8,7/5,6/4-6v5[8:1],5/3,4/2,,3/4,3,3,3-8[16:1],8-4[16:1],4-7[16:1],7-5>8[16:3],
,,,,,,6,5,4-6[16:1],3,{8}2,{16}4q8[16:1]*-8[16:1],1,2,3,
4,,,2/4,4/5,5/7,{8}6/8V24[8:1],{16}4pp5[8:1],4,{8}8,{16},,2,2-7[16:1],
,6x-3[16:1],,2xv5[16:1],,6x,,2x,8-6[16:1],8x-2[16:1],8x-4[16:1],8x<8p5[16:33]*>8q3[16:33],8x,8x,{8}8x,
{1},,{4},,{2}5q7[1:1]/4p2[1:1],
{4},,,,C,
{16}7x,7,5,5,4,4,2,2,8,7,{8}6v8[16:1]/5p8[16:1],
7/4,5x/6xz2[16:1],,3xh[16:1],,,{4}Ch[8:1],
{8}6h[4:1],5x,5h[4:1],4x,4h[4:1],3x,3h[4:1],2x,
2xh[8:1],1xh[8:1],8xh[8:1],7xh[8:1],{16}6bxh[16:1],4xh[16:1],5bxh[16:1],3x,{8}2bx-5b[32:1]/6bx>2[8:1],2bx<6[8:1],
{4}2x/Cf/6x<6[2:1]*p8[4:1],Cf,,3xV17V53[2:1]*-7b[32:1],
3x/Cf,6xV82V46[2:1],Cf,6x<2[4:1],
2xv5b[32:1]*>2[2:1],Cf,2x-6b[16:1]*pp5[8:3],Cf,
{8}7bxp6[4:1],7bx,Cf,3bxh[8:1],,4bx,7xv4b[32:1]/3xV57[8:1],{16}7xV13[8:1],7x,
{2}7x/3x>3[2:1]*q6[4:1],{4}Cf,8xw4[8:1],
8xqq5[2:1]*-2b[16:1],8x,5x-2[8:1],Cf,
{8}2xv5b[32:1]/6x>2[8:1],2x<6[8:1],{4}2x/6xV82[4:1],2xpp8[8:5],Cf,
{8}7bx,6bx,5bx,4bxh[2:1],{16}8v3b[32:1],8,,8,{4}8b,
{1}Ch[1:12]/5xs1<8z4b[2:1],
7xpp7qq7[4:3],
{16},,,,,A7,D8,A8,{32}D1,,,D2,,,,,,,,A2,,,,E3,
,,{16}E4,,,{4}A4h[4:1],,,{1}3xp8[4:3],
{16},,,,A8,E8,{32},E7,,,A6h[8:1],,,,,,,,,,,5xh[32:5],,,,,,,,,,,,,{4}6xq8[4:1],
,,{1}8xp1[4:1]*p1[4:1],
3xpp7[4:3],
{8},,,7xh[8:5],{4},,,{32},7xV58pp3[32:47]*V58[32:19],
{1},,{16}2,
4,4,5,5,7,7,1,2,{8}3v1[16:1]/4q1[16:1],
2/5,4/3s7[16:1],,6xh[16:1],,,{4}Ch[8:1],
{8}2/3h[8:1],4x,3/4h[8:1],5x,4/5h[8:1],6x,5/6h[8:1],7x,
{16}8x,8,1x,1,2x,2,3x,3,4/5,4/5,4/5,4/5,{8}6<8v3[8:1]/3<5b[32:1],3>1v6[8:1],
{4}3bx/6bxqq3>7[4:3],Cf,,7bx<7[2:1]*-3b[32:1],
Cf,7bxw3b[16:1],Cf/B7/B3,{8}3bx>1v6[8:1]/6bx>4b[32:1],6bx<8v3[8:1],
{4}6bx/3bxpp6<2[4:3],Cf,,2bx>6[4:1]*-6b[32:1],
Cf,1bxw5b[16:1],Cf/B1/B5/1bx<6b[16:1]*>4b[16:1],{8}1bxs5b[32:1]*-5b[32:1],{16}1bxp8<5p4>1[8:7],1bx,
{8}1bx,1bx,{4}Cf,,1bx>1pp4[16:13]*>1qq6[16:13],
Cf,Cf,Cf,Cf,
{8}6bxV42V86q6[4:3]/2bx-5b[32:1],4bx-1[8:1],{4}2bx-7[8:1],,3bxqq5<5<6pp4[4:3],
3bx,,,Cf,
{32}5b,4,5,4,5,4,5,4,7b,5,7,5,7,5,7,5,7,5,7,5,7,5,7,5,8b,4,8,4,8,4,8,4,
7b,2,7,2,7,2,7,2,7,3,7,3,7,3,7,3,6b,3,6,3,6,3,6,3,6,2,6,2,6,2,6,2,
7b,1,7,1,7,1,7,1,6b,1,6,1,6,1,6,1,5,1,5,1,5,1,5,1,4b,1,4,1,4,1,4,1,
5b,2,5,2,5,2,6,1,6,1,6,1,7,1,7,1,8b,1,8,1,8,1,8,1,7b,1,7,1,6b,1,5b,1,
4b,2,4,2,5b,2,5,2,6b,3,5,4,6,3,5,4,6,3,5,4,6,3,5,4,6b,5,6,5,6,5,6,5,
7b,4,6,5,7,4,6,5,7,4,6,5,7,4,6,5,7b,4b,6b,5b,6b,4b,5b,3b,4b,2b,4b,3b,5b,4b,6b,5b,
{24}7bx,5x,6bx,1x,3bx,2x,7bx,5x,6bx,1x,4bx,3x,8bx,5x,7bx,1bx,5x,4bx,8x,5x,{6}6bxh[12:1],
{32}3b,5,3,5,3,5,3,5,2b,6,2,6,2,6,1b,7,1,7,8b,8,8,8,8b,8,8bw4b[1:2],8,8bw4[16:31],8,8b,8,8,8,
{1}8bxh,
E
