&title=げむげむ☆おーばー
&artist=花芽すみれ
&first=0.5
&des=Nayutan可不只是有点可爱哟
&des_5=Nayutan可不只是有点可爱哟
&lv_5=13
&inote_5=(189){4}E6,B5,B4,E4,
{8}8/2>5V31[2:1],{4},{8}6,{4}6,{8}7,7,
{4}2/8,1-5[8:1]/7-4[8:1],{2}1/7,
{8}6/1,{16}2x,5x,{8}2x,7,3,3,5,5,
{4}4/5,3/6,1b/5h[4:1],2b,
7/1-3[8:1],7-5[8:1],1<3[8:3],7,
8x,5x-8[8:1],2,C,
3/5,4/6,7/3<1[8:3],5,
5x,7x-4[8:1]*-3[8:1],7,C,
1/8-5[8:1],1v4[8:1],{4}7-5v4-2[8:3]*-5v4-2[8:3],7x,
{4}1x,1x,1x,C,
4/6,5/3,4/6,7/3,
{1}5-3[2:1]/7>8-4[2:1],
{4}5-8[2:1],4,4,4,
4-1b[2:1],5,5,5,
6/E2f,6/E2f,6/E2f,6/E2f,
{8}5x/E2f,5x/E2f,5x/E2f,5x/E2f,5x/E2f,5x/E2f,{4}5x/E2f,
4x/5x,3x/6x,4x/5x,8x-6>5[8:1]/2x-4<5[8:1],
2x/8x,1x-4[8:1]/7x-4[8:1],7x/1x-6b[8:1],1bx,
8x-4[8:1],8/2-6[8:1],2,4/5h[2:1],
1x-3>5[8:3],1x,,C,
{1}3xq6[2:3],
,{4}3xq6[2:1],
3x,,3x,
3xq6[2:1],2x,,1x,
6x/8x,7x/5x,6x/8x,4x/7x,
5x/8x,7x/4x,5x/8x,7x/4x,
1bx/5bx,4bx/7bx,1bx/5bx,4bx/7bx,
2x-4[8:1],2x/5x-8[16:1]*-1[16:1],{8}5x,2x,2x,2x,
7/1x,6,2/8,3h[4:1],,7x,7x,7x,
5x/3,2,4/6,7h[4:1],,1x,1x,1x,
5-8[8:1],5,1-4[8:1],1,,6,6,6,
{4}5/4-2[8:1],4/5-7[8:1],4-8[8:1],4/5w1[8:1],
5,C,{8}2,2,8,8,
{4}3p7-2>3[2:1],{8}C,C,{4},5,
{8}6,6,2,2,5,5-8[8:1],3,5b-1[8:1],
A8f,5b-2[8:1],A1f,5b,A2f,8x,8x,8x,
2/8x,3,7/1,6h[4:1],,4x,4x,4x,
4x/6,7,5/3,2h[4:1],,8x,8x,8x,
4-1[8:1],4,8-5[8:1],8,,2,2,6,
{4}6<2[4:1],2>6[4:1],6<2[4:1],2>2[2:1],
{2}Cf,{4}4h[8:1],4h[8:1],
{8}8-5[8:1],8,2-6[8:1],2,{4},5,
{1}5/3>6b[2:1],
{4}4b,5/3,{2}6b/2b,
{1}6<3b[2:1],
{8},E7,E3,C,{4}1x,2x,
7/1-3[8:1],1/7-5[8:1],7/1<3[8:3],1/7,
8x,5x-8[8:1],5/2,C,
3/5,4/6,7/3<1[8:3],3/5,
5x,7x-4[8:1]*-3[8:1],7,C,
1/8-5[8:1],8/1v4[8:1],1/7-5v4-2[8:3]*-5v4-2[8:3],7x,
1x,1x,1x,C,
4/6,5/3,4/6,7/3,
{1}5-3[2:1]/7>8-4[2:1],
{2}1bx>1[2:1],1bx>1[2:1],
{4}1bx>1[2:1],5bx,{2}1bx,
{8}E8/B8/B7,{16}E3,B3,{8}B4,E7,C,E6,E4,E5,
{4}7x/1x,4x/5x,{2}B7f/B1f/E7/B6/E2/B2,
