&title=JULIAN
&artist=Queen P.A.L
&first=0
&des=LP
&lv_5=13+
&lv_6=13+
&inote_5=(153)
{4},,{12}7h[2:1]/5,,4,{8},3,2,,
{8}2-6[8:1],6-2[8:1],{12}2,,4,{8},7,8<4[6:1],,
{8}8/2,1,{12}8h[6:1],,3h[24:5],{8},{12}6h[24:9],,1,{8},
{8}8<5[8:1],4>1[8:1],8,4,{8},8<3[4:1],8/6h[4:1],
{8},,,{12}2h[2:1]/1,,8,{8},7,6h[4:1],,
{8}5<8[8:1],4,{12}53,,3,{8},2/C,1>5[6:1],,
{8}1/7,8,{12}1h[6:1],,6h[24:5],{8},{12}3h[24:9],,8,{8},
{8}1>4[8:1],5<8[8:1],1,5,{8},8-5[8:1]/4-1[8:1],5<6-1[8:1]/1>2-5[8:1],
{8},A1f,A5/A1f,{16}7h[4:1]/4,,,1,1,,5/3h[4:1],,,8,8,,1/7,,5,,2h[4:1]/8,,,4,4,,1/6h[4:1],,,5,5,,5/3,,1,,7h[4:1]/4,,,8,8,,5/3h[4:1],,,1,1,,57,,6,,
{8}15,37,26,48,{16}2,8,1,8,2-6[8:1],4,3,4,2b,,,,{16}8,8,,4,
{16}4,,7,5,6,,15,,5,,2,2,,4,3,,
{16}3,5,4,6,6,,82,,3,4,,2,5,,3,4,
{16}2,,2,,3,,46,46,,3,,3,5,,3,5,
{16}4,,4,,3,5,4,6,5,5,,4,5,,3,4,
{16}2,,2,,34,,34,34,,56,,56,56,,4,5,
{16}45,,34,,3,34,,6,56,,4,5,4,,4x/3x,,
{16}4x,,4,5,,5,4,5,3,,3,4,3,,3,,
{8}2-7[8:1],,5b,,{16}6,5,,1,8,,2,4,
{16}3,,48,,4,,6,5,,6,,6,5,,6,5,
{16}6,,6,,6,3,4,3,5,5,,4,5,,5,4,
{16}6,,6,,56,,46,46,,34,,35,35,,4,5,
{16}45,,34,,56,56,,34,34,,5,4,36,,45,,
{16}5,,5,4,,4,5,4,6,,6,5,6,,6,,
{8}7-2[8:1],,5b<4[4:1],,
{16}5,4x,,6,
{16}6,,8,8,5-8[8:1],,7-3[8:1],,5,,7,,1,1,,2,4,,1,1,
{16}4-8[8:1],,2-5[8:1],,4b,,2b,,8,7,1x,2,35,6,7-5[8:1]/4-8[8:1],,
{16},,4b/7b,,,,1/4-8[8:1],,,,4,,3<6[8:1],,2,1,
{16}3,8,8>3[8:1]*<5[8:1],,,,8b-4[8:1],,,,8b/5w1[8:1],,,,5b,,
{16},,37,,7-3[8:1],5,6,5,7,,,,25,,,47,
{16},,2,1,38,,,56,,,15,15,1h[16:2]b/5h[16:4]b,,,,
{16},,,,2,3,4<7[8:1]/8-3[8:1]b,1,2,3,4>1[8:1]/8x-5[8:1]b,,,,4/8-4[8:1],,
{16},,8,,,,6,,5/7,,8,7,6/4-7[8:1],3,2,,
{16}4-1[8:1],,2,3,4pp8[4:1],,6,5,4,,8,1,2q6[8:1],,7>2[8:1]b*<4[8:1]b,7,
{16}2b,,A7/E7/E8/D7/D8,,,,3h[16:3]x,,2,1,8,,2b/8b,,,3b/7b,
{16},,6b-2-5[4:1]/4b-8-5[4:1],,,,,,,,,,3h[8:1]/7h[8:1],,,,
{8}2,2,24,2,28,2,2/7h[8:1],4,6/3h[8:1],5,1/8h[8:1],{16}5,,2h[1:2]b/7b,,,,
{32}6x,5x,,,,,6x,7x,,,,,6b,,,,,,,,6x,5x,,,7x,8x,,,6b,,,,6x,5x,,,,,6x,7x,,,,,6b,,,,,,,,6,5,,,7,8,,,,,,,2b/7b,,,,,,,,
{8}7,7,75,7,71,7,7/2h[8:1],4,3/6h[8:1],5,8/1h[8:1],{16}4,,7h[1:2]b/2b,,,,
{32}E3,B3,B4,,,,E7,B7,B8,,,,2b,,,,,,,,E3,B3,B4,,E7,B7,B8,,2b,,,,E3,B3,B4,,,,E7,B7,
{32}B8,,,,2b,,,,,,,,A5/E5/B5f,,,,2b>2[8:4],,,,,,,,8,,,,,,,,
{8},,,,{32}7,,,,7-2[8:1],E7,B6,B5,E5,,,,73,,,,,,,,3-6[8:1]b,E3,B2,B1,E1,,,,3b/5>7[8:3],,,,,,,,5x/7,,,,7<3[8:2]*p3[8:2],,,,,,,,
{8},,,,{32}2,,,,2-7[8:1],E3,B3,B4,E5,,,,26,,,,,,,,6-3[8:1]b,E7,B7,B8,E1,,,,6b/4<2[8:3],,,,,,,,42,,,,2-5-8[8:2]*-4-8[8:2],,,,,,,,
{8},,,,{32}7,,,,8-4[8:1],7,6,5,,,,,6-1[8:1]/8,,,,,,,,2-5[8:1],3,4,5,,,,,4-8[8:1]b/2,,,,,,,,3b,,,,,,,,57,,,,
{16}34,,1/2-6[8:1],,7/8<5[8:1],,2,,8,,4
,,2,,3<6[8:1],4,1w5[4:1]b,,3,,1b,,,,,,,,7-4[8:1]/3-7[8:1],62,51,,
{16}37,,,,1,,3-8[8:1]/8-4[8:1],,,,38,,,,1v6[8:1],,
{16}6<1[8:1],,1>4[8:1],,4,,5h[8:2],,,,,,
{16}3,5,4,6h[8:1],
{16},8,7,8,16,2,3,1/4h[8:1],,8,7,6,54,3,2,1h[8:1],
{16},7,8,6,4,5,3,1,2b,,,,4-8[32:3]/7-5[32:3],,,,
{16}47,,,,1,,2-4[32:3]/5-1[32:3],,,,25,,,,5/7-4[32:3],,
{16}6/8-3[32:3],,7,,8<5[8:1],,,,8b/2,,,,26,37,48,15,2-6[32:3],3,4,5>2[32:3],26,7,,5,6,,1,8,2,4,3,4,5b,6b,5b,4b,3,,,28,,,37,,4-8[32:3]/6-3[32:3],,,,
{16}46,,,,1,,2>5[32:3]/5-1[32:3],,,,25,,,,
{16}8v3[8:1],,
{16}3>8[8:1],,8<5[8:1],,5,,4h[8:2],,,,,,{16}6,4,5,3h[8:1],
{16},1,2,1,83,7,6,1/5h[8:1],,2,3,4,56,7,8,1h[8:1],
{16},2,8,5,6,1,4,3,7b-3[32:3]b,,,,{16}7-1[32:3]/2-5[32:3],,,,
{16}72,,,,8,,7-5[32:3]/4-8[32:3],,,,74,,,,4/2-5[32:3],,
{16}3/1-6[32:3],,28,,1>4[8:1],,,,1b/7,,,,73,62,51,84,7-3[32:3],6,5,4<7[32:3],73,2,,4,3,,1,2,7,5,6,8,4,2,1,3,7<4[32:3],,56,,
{32}37,2,1,8,,,,,{16}12,12,38,,,,78,78,16,,,,18,18,27,,15,,5b/6,,
{24},48,,,,34,,34,,2/5b,,,,47,,,,18,,18,,
{48}1b/8b,27,36,45,
&inote_6=(153)
{4},,{12}4>1[6:1]/5,,6,{8},7,8,,
{8}7-3[8:1],3-7[8:1],{12}7,,5,{8},2,1>4[6:1],,
{8}1qq6[8:3]/7,8,{12}13,,2,{8},{12}4,,35,{8},
{8}6-2[8:1],8<5[8:1],6,8,{8},1>6[4:1],1,
{8},Ch[8:1],,{12}4xz8[8:3],,3,{8},2,2,,
{8}1s5[8:3],7,{12}1,,4,{8},7,8<5[6:1],,
{8}8pp3[8:3]/2,1,{12}86,,7,{8},{12}5,,64,{8},
{8}3-7[8:1],1>4[8:1],3,1,{8},8-5[8:1]/4-1[8:1],5<6-1[8:1]/1>2-5[8:1],
{8},A1f,A5/A1f,{16}6h[4:1]/4,,,1,1,,5/3h[4:1],,,8,8,,1/7,,5,,2h[4:1]/8,,,4,4,,1/7h[4:1],,,5,5,,5/3,,1,,6h[4:1]/4,,,8,8,,5/3h[4:1],,,1,1,,47,,25,,
{8}13,46,58,27,{16}1,8,1,8,2-6[8:1],7,4,5,2b,,,,{16}8,8,,8,
{16}8,,7,5,6,,42,,1,,1,1,,1,1,,
{16}3,5,4,6,1,,3,,3,4,,3,4,,3,4,
{16}3,,3,,3,,3,4,,3,,3,4,,3,4,{8}3,3,{16}3,6,5,6,{16}4,5,,4,
{16}5,,4,,4,,4,,4,,4,5,,4,,4,5,,4,,4,,4,,4,5,,4,5,,4,5,4,,4,,4,,4,5,,4,5,4,5,,3,4,{8}3,3,2-7[8:1],,2b/5b,
