&title=Viden
&freemsg=Mas 13.6 Remas 13.7
&des=NekoMuseigen/えども~ん
&des_5=NekoMuseigen
&des_6=えども~ん
&artist=onoken
&first=0
&lv_5=14
&lv_6=14
&inote_5=
(174)
{1},
{16}
6h[8:1],,4,,,,2h[8:1],,8,,,,6h[8:1],,5,,,,3h[8:1],,4,,3,4,3-1[16:2],,,,6,,,,
7h[8:1],,1,,,,3h[8:1],,4,,,,6h[8:1],,5,,,,4<8[8:2],,,,3h[8:5],,,,,,,,,,
1,,3,,2,,4,,3h[4:1],,,,6h[8:1],,5,,,,2h[8:1],,4,,2,1,2-8[8:1],,,,6h[4:1],,,,
8,,6,,7,,5,,6h[8:2],,,,3,,3h[4:2],,,,4,,,,5w1[8:1],,,,,,,,,,
56,,4/7h[4:1],,,,8,,1h[4:1]/6,,,,8,,2/7-5[8:1],,,,4,,4-8[8:1],,,,6-3[8:1],,,,2h[4:1],,,,
1,,8/3h[4:1],,,,4,,2/5h[4:1],,,,4,,3>8[4:1]/6,,,,8<5[4:1],,,,5>2[8:2],,,,,,8h[4:1],,,,
1,,27,,6h[8:1],,5,,4h[4:1]/7,,,,5,,3h[4:1]/6,,,,4,,2/5-1[8:1],,,,3-6[8:1],,,,7h[4:1],,,,
8,,16,,,,12,,83,,,,86,,1s5[4:2]/5,,
{4},,,,
{16}
25,,4,,3,,6,,5,,7,,5,,6,,
74,,5,,6,,3,,4,,2,,4,,3,,
25,,4,,3,,6,,5,,7,,5,,6,,7/4,5,6,7,8,1,2,3,4/7,6,5,4,3,2,1,8,
72,,3,,4,,2,,6,,4,,5,,3,,
65,,7,,4,,6,,5,,6,,4,,5,,
34,,2,,5,,3,,4,,3,,5,,4,,4/3h[8:2],,2,1,8,7,6,5,4-7[8:1]/3-8[8:1],,2b/5b,,,,,,
43,,2,,5,,4q1[8:1],,6,,,,8q5[8:1],,2,,,,3q8[8:1],,5,,,,7p5[8:3],,,,,,,,
4,,3,,2,,1p4[8:1],,7,,,,5h[16:4],,2,,,,53,4,5,6,7,8,16,5,4,3,2,1,8,7,
46,,3,,3,,8p3[8:1],,4,,,,2p5[8:1],,6,,,,8q5[8:1],,3,,,,2w6[8:1],,,,,,,,
24,,7,,35,,8,,46,,1,,75,,2h[8:2],,
{16}8,7,6,5,2,3,4,5,
{32}8q4[8:1]*V24[8:1],7,6,5,4,3,2,1,
{16}
,,,,7b,5,6,4,5,4,6-1[8:1],5,7,5,6b,,,,
34,,2,4,3,5,4,5,3-8[8:1],4,2,4,3b,,,,
56,,5/6h[4:1],4,3,2,1,,8/1V38[16:3],7,6,5,4,,,,
6h[16:4],,1,2,3,4,5/6-8[8:1],,5-2[8:1],,6v1[8:1],,5,,6b,,,,
2,4,3,5,3,5,2-6[8:1],4,2,4,2b,,,,
87,,7,5,6,4,6,4,7-3[8:1],5,7,5,7b,,
{24}
2,,2,,2,,{12}8,5,6,1,4,3,7,5,6,2,4,3,
{16}
6,5,6,5,6,5,{24}6,7,8,1,2,3,{16}4,,
{12}
43,,,
{16}
2,1,4,5,8,7,1-4[8:1],7,8,7,1b,,6,,
56,,7,8,5,4,1,2,8-5[8:1],2,1,2,8b,,3,,
43,,3h[4:1]/4,5,6,7,8,,1/8V62[16:3],2,3,4,5,,,,
3h[8:3],,1,8,7,6,5-8[8:1],,3-7[8:1],,5V38[16:3],,3,,5b,,,,
4,,4,,35,,35,,64,,25,,74,,1/5,,
8/3h[8:2],7,6,5,4,3,2q5[8:2],1,8,7,6,,,,,,
7h[8:1],,4,,,,2h[8:1],,5,,,,8h[8:1],,1s5[16:6],,,,,,6,,,,7-3[16:3],,,,1,,,,
2h[8:1],,4,,,,7h[8:1],,5qq1[8:6],,,,,,8,,,,7,,,,6-2[8:2],,,,,,,,,,
4b/5bpp4[8:3],,,,,,,,2,,,,,,,,8/1pp8[8:3],,,,,,6,,5,,5,,,,,,
3b/4bpp5[8:3],,,,,,,,1,,,,,,,,7/8pp1[8:3],,,,,,5,,4,,4,,,,,,
3h[8:2]/4b,,,,5h[8:1],,4,,3-8[8:1]/6,,,,7,,,,6h[8:1],,5,,47,,3h[8:1],,4,,25,,,,,,
7h[8:2]/8b,,,,1h[8:1],,8,,7-4[8:1]/2,,,,3,,,,2h[8:1],,1,,83,,7,,5-1[8:1]/6,,5/6,,,,,,
7V53[8:2],,7,,8,,1,,1,,2,,3V17[8:2],,3,,4,,5,,5,,6,,7V53[8:2],,7,,8,,8,,
1,2,3,4,5,6,7,8,1,2,3,4,5,6,7,8,
{24}1,2,3,4,5,6,7,8,1,2,3,4,
{32}5,6,7,8,1,2,3,4,5,6,7,8,1,2,3,4,
{4}5s1[4:5],,,,,,,
{16}2,3,4,5,7b,6,5,4,1,2,3,4,1-5[8:1],8,7b,,,,
7h[8:2],,4,3,2,1,7,6,5,4,8-4[8:1],1,2b,,,,
3h[8:1],,5,3,6,3,7h[8:1],,3,7,2,7,1h[8:2],,,,
7h[16:6],,1,2,3,4,5-3[8:1],,7-1[8:1],,5v2[8:1],,7,,5b,,,,
8,7,6,5,3,2,1,8,4-8[8:1],5,6b,,,,
6h[8:1],,1,2,3,4,6,7,8,1,5,4,3,,
{24}
26,,26,,26,,{12}1,1,6h[16:1],4,4,7h[16:1],2,2,5h[16:1],8,8,6h[16:1],
{16}
3,4,2,5,1,6,{24}2,3,4,5,6,7,{16}8,,
{12}
7b/8b,,,
{16}
2,3,6,5,3,4,7,6,2,3,4b/8b,,26,,
26,,7,6,3,4,6,5,2,3,7,6,5b/1b,,73,,
73,,6,4,8,2,5h[8:1],,3,5,1,7,4h[8:2],,8,,
8,,84,73,62,51,4,3,2,1,8w4[16:2],,26,,8b,,,,
24,,3,,15,,3,,68,,4,,17,,5,,
82,,6,,13,,7,,34,,75,,12,,56,,
8b/3h[8:2],7,6,5,4,,1b/6h[8:2],2,3,4,5,,
3b/4h[8:2],2,1,8,7,,6b/5h[8:2],7,8,1,2,,
{32}4,3,2,1,8,7,6,5,4-8[8:1],3,2,1,8,7,6,5,{4}4w8[4:6],,,,,,,,
{8}3,3,,5,5,,4,4,,,,,,,,,,,,,,,E
&inote_6=(174)
{1},
{8}2-5[8:7],4,,3,3,,2,2,,,1,,1,,8,,7-4[8:7],6,,8,8,,1,1,,2,,3h[4:1],,,{16}5,4,6,5,
{8}7-2[8:7],8,,6,6,,7,7,,,8,,1,,2,,3-7[8:7],4,,5,5,,6,6,,5w1[4:1],,,,,{16}3,7,4,6,
{8}1b^4[8:1],8,,6^1[8:1],5,,4^7[8:1],3,,1-5[8:1],8,,7-3[8:1],,3,,
{8}1^6[8:1],2,,4^1[8:1],5,,7,6V41[4:1],,1>5[3:1]*<5[3:1],8,,,,,,
{8}6^1[8:1],5,,3^6[8:1],2,,1^4[8:1],8,,6-2[8:1],5,,4-8[8:1],,,,
{8}17,17,,35,35,,26,2V41[2:1]/6V47[2:1],,,,,,,,,
{8}3h[2:1]/4,5,6,5,6,7,1,8,6h[2:1]/5,4,3,4,3,2,8,1,
{8}3h[2:1]/4,5,6,5,6,7,1,8,6h[8:3]/5,{16}4,3,2,1,8h[8:1],,5,4,3,2,1,8,7,6,
{8}5h[2:1]/4,3,2,3,2,1,7,8,4h[2:1]/5,6,7,6,7,8,2,1,
{8}5h[2:1]/4,3,2,3,2,1,7,8,16,{16}3,5,4,6,{8}5,1-5[8:1]/8,27,1,7b,
{8}6,8,6,5,64,,61,2,6,4,63,,7-4[8:1]/4-1[8:1],,74,,3,1,3,4,35,,38,7,3,2-5[8:1]/8-5[8:1],,28,,,18,,
{8}7-4[8:1],1-4[8:1],7-1[8:1],1V74[4:1],7V14[6:1],,,,
{8}2-5[8:1],8-5[8:1],2-8[8:1],8V25[4:1],2V85[6:1],,,,
{8}34,2,45,7,53,1,56,8,{4}4qq1[3:1]*pp7[3:1],,,{16}7,1,6,2,
{16}5b/3h[4:1],6,7^4[6:1],8,1,,4,3-7[6:1],2,1,8,,,,,,
{16}4/6h[4:1],3,2^5[6:1],1,8,,5,6-2[6:1],7,8,1,,,,,,
{16}2,1,2,8,2,,6,5,6,4,6,,37,,2,,18,7,6,5,8,1,2,3,6,5,4,3,2,1,8,7,
{16}4/6h[4:1],3,2^5[6:1],1,8,,6,7-3[6:1],8,1,2,,,,,,
{16}5/3h[4:1],6,7^4[6:1],8,1,,3,2-6[6:1],1,8,7,,,,,,
{12}7,8,5,4,1,2,8,5,6,3,4,1,
{16}8h[16:7],7,6,5,4,3,2,1,27,36,45,,2b/7b,,,,
{16}4/6h[4:1],3,2^5[6:1],1,8,,5,6,7-3[8:1],8,1,,74,,,,
{16}5/3h[4:1],6,7^4[6:1],8,1,,4,3,2-6[8:1],1,8,,25,,,,
{16}7,8,7,1,7,,3,4,3,5,3,,62,,7,,81,2,3,4,1,8,7,6,3,4,5,6,7,8,1,2,
{8}43,34,52,52,16,61,78,87,{32}1,2,3,4,5,6,7,8,1,2,3,4,5,6,7-3[8:1],8,1,2,3-7[8:1],4,{8}5b,,,
{1}1>8[1:2],,5<4[8:14],,
{4}8v7[4:1],,2,,2-4[6:1],{8},1,8,7,,,2pp1[8:3],,,6,6,,{4},7pp7[4:1],7^5[6:1],{8}3,4,,,4p5[4:1],,,,8,,,,
{8}1,,,4pp6[4:1]*qq2[4:1],35,,,,3-5[8:1],,,7-4[6:1],,,2-5[6:1],2,,8-4[6:1],,1w5[6:1],,,,,
{8}7,7,7,57,5,5,45,4,4,24,2,2,82,8,8,18,
{16}1,2,3,4,
7,6,5,4,
2,3,4,5,
8,7,6,5,
{16}3,4,2,5,1,6,8,7,
{32}1,2,3,4,5,6,7,8,1,2,3,4,5,6,7,8,
{4}1w5[4:5],,,,,,,
{16}3,6,2,7,
{16}1b/8h[4:1],2,3^8[6:1],4,5,,83,7,6-2[8:1],5,4,,,,,,
{16}8/2h[4:1],7,6^1[6:1],5,4,,26,3,4w8[8:1],5,6,,,,,,
{16}7,8,7,6,7,,3,5,4-1[8:1],2,4,,,,,,
{16}7,1,6,1,5,1,4,1,{24}3-5[8:1],2,1,8,7,6,{4}5/3b,
{16}8/1h[4:1],7,6^1[6:1],5,4,,16,2,3-7[8:1],4,5,,,,,,
{16}1/7h[4:1],2,3^8[6:1],4,5,,73,6,5w1[8:1],4,3,,,,,,
{12}2,1,4,5,8,7,1,4,3,6,5,8,
{16}1h[16:7],2,3,4,5,6,7,8,72,63,54,,7b/2b,,,,
{16}6/3h[4:1],7,8^5[6:1],1,2,,4/8,3,2-6[8:1],1,8-4[8:1],,2,,8,,
{16}3,2,1^4[6:1],8,7,,5/1,6,7-3[8:1],8,1-5[8:1],,7,,1,,
{16}8,7,6,5,4h[8:1],,1,2,3s7[6:1],4,5h[8:1],,,,,,
{16}2,8,3,8,4,8,5,8,{24}6-4[8:1],7,8,1,2,3,{4}4/6b,
{8}2/5h[8:1],3,4h[8:1]/7,6,
{8}1/5h[8:1],2,4h[8:1]/8,7,
{8}5h[8:1]/1,3,4h[8:1]/8,6,
{8}5h[8:1]/1,3,4h[8:1]/8,6,
{16}1b,4,3,7h[16:3],,,5,8,2,6h[16:3],,,1,2,3,4,6,5,7,4,8,3,1,2,
{32}8,7,6,5,4,3,2,1,8,7,6,5,4,3,2,1,
{4}8b/4<3[4:6],,,,,,,,
{8}4/6h[8:1],4,,5/3h[8:1],5,,4,4,,,,,,,,,,,,,,,E
