&title=Calvados Queen
&artist=OSTER project feat. かなたん
&first=1.69
&des=鏡に映した宿命
&lv_5=14
&inote_5=(220)
{1}5V31[4:2]/6,4V68[4:2]/3,1/2qq5[4:3],
{2}7^4[8:3],3,
{12}56,,,4,,4,7-5[8:1],,,,,,
{12}43,,,5,,5,{12}3,2,1,8^3[6:1],,,
{8}7,7q4[6:1],,,5,5w1[8:1],,{24}5,C,,{8},,,,Ch[8:4]f/1b,,,,
{12}2h[4:1],,,4,,4,3,,3,5,,5,4,,4,6,,6,5h[12:3],,,6,7,8,
{12}2,,2,8,,8,4,,4,6,,6,
{12}3b-8[8:1],,,7-4[8:1],,,1-5[8:1],,,8,,,
{12}6,,6,4,,4,5,,5,3,,3,
{4}6v1[8:1],4,2v5[8:1],8,
{12}6,,5,7,,7,3,,4,2,,2,
{12}8,1,8-4[8:1],1,,7-5[8:1]/8x,,,3x-8[8:1]/7,,,3b/4x,,,,
{12}7,6,5,3,2,1,7,6,5,
{12}2,,34,,,6/5h[8:2],,,3>5[12:4],,,4b,,,,
{12}3,,3,5,,4,6,,5,7,6,7>5[12:5],6>8[12:4],,,,,,,,,
{4}4x/6xh[8:2],3h[8:2],{12}1,8,7,26,15,
{12}4b/8b,,,,{4}23,45,67,
{12}2-5[8:1],,4,2,,,7^4[8:1],,4,7,,,
{12}2x,,2x/3x,A4,A5,A6,A7,,,
{12}8x/1x,,8x/1x,D3,D4,D5,D6,D7,D8,D1/C,,,,,,
{4}2q5[8:5],,,,6,5,4,3,
{4}7p4[8:5],,,,3,4,5,
{12}6,,6-3[8:1],,,7h[12:7],,,,,,,3,,,
{4}4,5,6,7,
{1}8p1[8:4],{12}3x,,,4x,,5x,,,6x,,,,
{4}8p6[8:5],4,,4,5,4,3,2,
{4}1q3[8:5],5,,5,4,5,6,
{12}7,,7-2[8:1],,,8h[12:7],,,,,,,4,,4-7[8:1],,,3,,,,
{12}A2,,E1,A7,,,
{8}34,,45,,56,,{12}4-1[8:1]/5-8[8:1],,45,,,,,,,,,,,,,
{12}2pp1[8:4],,5,2,,,{4}6,7,
{12}6pp5[8:4],,2,6,,,{4}3,4,
{4}3^1[8:1],4,5^7[8:1],4,
{4}4^2[8:1],5,6^8[8:1],5,
{6}12,3,4,56,7,8,
{4}2-4[8:1],5^8[8:1],1-3[8:1],5,
{4}6qq3[8:4],2,1,8,
{4}7pp2[8:4],6,5,4,
{12}35,,,2-4[8:1],,2,5-2[8:1],,,6,,,
{12}7,,,8-5[8:1],,8,4v6[8:1],,,3,,,
{12}2,,,4b/8b,,,{6}57,46,35,
{4}2-5[8:1]/4,6pp4[8:3],
{12}3,,3,,,
{12}2h[12:4],,,,6h[12:3],,,3,,5,4,,7h[12:10],,,,
{12}E6,E7,E8,E1,E2,E3,E4,,,
{12},,78,,,,12,,,46,,35,,,,
{12}7/5^2[8:1],,,7p3[8:1],,7,1,,1w5[6:1],,,,C,,,,,
{6}37,37,{4}3/7>6[8:4]b,Cf,,,
{12}1-5[8:1],,8-6[8:1],1,,8,4<7[8:1],3,2,14,,,
{12}2-6[8:1],,1-7[8:1],2,,1,5,4,3,
{4}2/5^8[8:2],8^3[8:2],3^6[8:2],6^1[8:2],
{4}1>7[8:4],3qq4[8:4]b,,,
{4}5x-1[8:1],5/6,4x-8[8:1],4/3,1,
{12}7,,7,5,,5,4,,4,2,,2,
{12}7bx,8,1,2,3,4,1x,8,7,6,5,4,
{16}8x,7,6,5,4,3,2,1,
{12}48,,7x/5x,7/5-1[8:1],,,
{12}3/5qq5[8:3],,,8,,8,,,6<4[16:5],,,46,,,,
{12}1x,,1,5,,5,3,,3,
{12}8<5[8:1],,1,8pp1[8:2],,,4,,,6,,,
{12}3^6[8:1],,6,3,,,
{12}7,8-4[12:2]b,1-5[12:1]b,2,,,,,,
{12}36,,,8/1,,1-4[8:1]b/8-5[8:1]b,2x/7x,,,,,,27,,,
{6}31,8-4[6:1]/2,71,
{12}6bqq7[8:3],,,D4,D3,D2,D1,,,1x,,,
{12}2pp1[8:3],,,D5,D6,D7,D8,,,Cf,,,
{12}2b,1,2,1,2,1,2,1,2,1,2,1,2b,3,4,8,7,6,4,3,2,1/E5/B5/B4,,,
{12}7b,8,7,8,7,8,7,8,7,8,7,8,7b,6,5,1,2,3,5,6,7,8/E5/B5/B4,,,
{12}3b,6,3,6,3,6,4,5,4,5,,
{12}2,1bx,,7,8bx,,6,5bx,,3,4bx,,,
{12}18,,2q3[12:4]b/7p6[12:4]b,,,27,,,,,,
{12}Cf/B6/E7/B3/E3,,,
{12}1,8,,6,5,,3,4w8[8:1]b,,,,,,
{12}2x,3,4,1x,2,3,8x,1,2,
{12}7,,7,5,,5,4,,4,2,,2,
{12}7-2[8:1],,3-6[8:1],7,,3,,
{12}1x,8x,7x,,4b,,,6b/2b,,,
{12}3,4,,6,5,,7,
{4}8xq4[8:1],6,1xp5[8:1],3,8x>4[8:1],6,1x<5[8:1],3,
{6}3b/E6,2b/E7,1b/E8,,6b/E4,7b/E3,8b/E2f,,,,,,
{1}6p4[4:3]b,3q5[4:3]b,7q1[4:3]b,2p8[4:3]b,
{4}5,6,7,8,1,2,3,4,{4}5q4[8:4]/6<3[8:4],56,,
{12},,E1/B8/Cf/B4/E5,,,,
{24}3xh,4xh,5xh,6xh,7xh,8xh,1xh,2xh,3xh,,5,,
{12}5-1[8:1],,,{12}7/5pp4[8:3],,,2,,2,,,3>5[16:5],,,35,,,,
{12}8x,,8,4,,4,6,,6,
{12}1,8,1qq8[8:2],8,,,2,,,4,,,
{12}3,6,3^6[8:1],6,,,
{12}7,8-4[12:2]b,1-5[12:1]b,2,,,,,,
{12}36,,,8/1,,1-6[8:1]b/8-3[8:1]b,2x/7x,,,,,,C/B6/B2,,,
{12}4,8,3,7,2,6,
{24}1b>6pp3[4:4],B1,C,B5,,,,,,B8/E8f/B7,,,
{4},,,,{12}27,,,36,,8b/1b,,
{12},2,2,4,3,5,4,6,5,7,6-2[8:1],,,8,8,,,,,,,,,
{1}7bqq4[4:15]/2bpp5[4:15],
