&title=滚木购
&artist=fancier
&first=0
&des=FFFFLaN
&des_5=FFFFLaN
&lv_5=14
&inote_5=(134){1},{4},,,,{48}8/1,
2/7,3/6,4h[16:5]/5h[8:1],{24},,,,,,,{8}5-8[8:1]*>8[8:1],8-4[8:1]/1-5[8:1],5b,{4},{64}1/5,
2/6,3/7,8/4w8[64:5],5,6,7,8,1,2,{32}3,{16},,,,,{4}4w8[8:1]/5w1[8:1],5/4,
{16}5/Cf,{8},{16}3/6,{8}1/8,4/5,1-5[8:1]*-4[8:1]*-4[8:1]*-5[8:1]*-5[8:1]*-4[8:1]/8-4[8:1]*-5[8:1]*-5[8:1]*-4[8:1]*-5[8:1]*-4[8:1],4/5,{4}8/1,
{8}6h[4:1],1b,1b,3h[8:1],8b,6h[4:1],1b,1b,
3h[4:1],1b,1b,6h[8:1],8b,2,{48}1b/8b,7b/2b,6b/3b,5b/4b,{6},{8}7h[4:1],
4b,4b,2h[8:1],5b,7h[4:1],4b,4b,
2h[4:1],4b,4b,7h[8:1],5b,1-4[8:1],1-6[8:1],1,
1,{4},{48}4x/5x,3x/6,2x/7x,1x/8x,{6},{48}4x/5x,3x/6x,2x/7x,8xh[16:1]/1xh[16:1],{16},{48}2x/7x,3x/6x,4xh[16:1]/5xh[16:1],{6},{8}6/5,
1b,1b,3/4,8b,6/5,1b,{48}1b,B1,C,B5,{24},{8}6x/5x,
8b,8b,4/3,1b,5/6,{48}8bx,E8,B7,B6,{24}E6,{48}8bx,E1,B1,B2,{24}E3,
{8},5b,6b,8/7-2-6-3[0.2239##0.7836],{4}4b,{8}1b,1b,
,8-5[0.2239##0.2239],{4}8b,{8}1bxh[8:1],{48}8x,2x/7x,3x/6x,4x/5x,{24},{48}8x/1x,7x/2x,6x/3x,5x/4x,{24},{48}1x/8x,2x/7x,3x/6x,4x/5x,{24},{8}Cf,
{2},{8}8h[8:1],{4},{48}6/2-6[8:1],
3/7,4/8,5/1,{6},{4}2-5[8:1]*-4[8:1],2-7[8:1]*-8[8:1],2b,
{16}4/5,{8},{16}5,{8}4,3/4,8/7,6/5,2-6[8:1]/1-5[8:1],3/8,
{4}1/2,{8}8b/7b,4,4b/3b,3,2v4[8:1]/6v8[8:1],4/8,
{4}2/6,{8}1b/2b,6,6b/5b,5,6/2,8/4,
5/1,3b,4b/8b,6,{32}5/1,{16},{64}2bx,3bx,4bx,5bx,6bx,7bx,8bx,1bx,{32},,,,,{8}5b,
6/4,1b,3/5,8b,5/6h[24:1],1b,1b,1b,
{64}1x,2x/8x,7x/3x,4x/6x,{16},{8}5b-1[8:1],,5b,,5w1[0.2239##0.2239],{4}5b,
{8}2xh[4:1],3b,3b,7h[8:1],6b,1h[4:1],3b,8b,
6/4,1-5[8:1],1,1b/8-4[8:1],8,5b/8b-5b[8:1],1-4b[8:1],8,
{4}1b,{8}6/2,4,5b/3b,2b/6b,{4}7h[4:1],
{32}1x,2x,3x,4x,5x,6x,7x,8x,1x,2x,3x,4x,5x,6x,7x,8x,1xs5[16:3],2x,3x,4x,5x,6x,7x,8x,{2},{4}4-1[32:3]/5-8[32:3],
,8w4[8:1],
{16}8,{8},{16}7/2,{8}2/7,3/6,8-4[8:1]*<5[8:1]/1-5[8:1]*>4[8:1],4/5,{4}1/8,
{8}6h[4:1],1b,1b,3h[8:1],8b,6h[4:1],{16}1b,1b,{8}1b,
3h[4:1],8b,{16}6b,6h[16:3],{8},1b,3h[4:1],{16}8b,8b,{8},{48}2x/6x,
3x/5x,{24}4x-8[12:1],{6},{8}4x,{48}7x,6x,{12}5x-1[12:1]*w1[12:1],{8},5x,{4},{48}2/7,
3/6,{24}5/4h[12:1],{6},{16}8,1,{8},2b/4b-7[8:1],4-1[8:1],4-8[8:1],4,
{4},{8}6-1[8:1],1-5<8[4:1]*-4>1[4:1],{2},{8}1/8,
{48}1b,2b,3b,4b,{24},{48}1b,2b,3b,4b,{24},{8}8h[8:1],{48},7b,6b,5b,{24},{8}1,{16}3b/4b,4b/3b,{8}3b/4b,
8,{48}8b,7b,6b,5b,{24},{48}1bw5[8:1],2b,3b,4b,{6},{4}1,{16}6/3,3/6,{8}8/1,
8,{48}8b,7b,6b,5b,{24},{48}8b,7b,6b,5b,{24},{8}1h[8:1],{48},2b,3b,4b,{24},{8}8,{16}6b/5b,5b/6b,{8}6b/5b,
1x,4b,{16}4b,3b,{8},1b/8b,{48}1x/8x,2x/7x,3x/6x,4x/5x,{24},{48}1x/8x,2x/7x,3x/6x,4x/5x,{24},{48}1x/8x,2x/7x,3x/6x,4x/5x,{24},{48}1x/8x,
2x/7x,3x/6x,4x/5x,{24},,,,,,,,,,,,,,,,,,,{16}6,4,
5,2,4,3,7,5,6,1,5,3,4,3,5,4,6,3,
6,4,6,5,6,7,6,8,6,1,6,2,6,3,5,4,
5,3,6,3,7,2,7,1,8,1,7,8,7,8,{8}6/1,
{16},4/5,{8},2/1,{16}6,6,5,7,3,3,4,2,{24}5,4,5,
{8}4,6,5/7,{24}1,8,1,{8}8,2,3/4,{24}6,5,6,
{8}5,7/4,8/1,{24}3,4,3,{8}4,2/5,8/1,{32}2/7,3,4,5,
6,7,8,1,2/7,6,5,4,3,2,1,8,7/1,2,3,4,5,6,7,8,1/6,5,4,3,{48}2x,1x,8x,7x,6x,5x-8[48:31],{8}4x-1[8:5],
,4b,,,,,,{48}1/8,2/7,3/6,4/5,{6},{8}2/1,
{48}8/1,7/2,6/3,5/4,{6},{8}7/8,{48}8/1,7/2,6/3,5/4,{6},{8}1/8,
E
