&title=felys -final remix-
&artist=onoken
&first=0
&des=红色是毁灭蓝色是冷漠绿色是伪装白色是虚无黄色是警告粉色是虚伪紫色是神秘橙色是愤怒黑色是归宿
&lv_7=felys
&inote_7=(180)
{1},,,,,,,
{4}
4w8[8:1],,
{16}
2b,6,2,6,2,,7,8,7,6,7,,1,2,3,4,
7,6,7,6,7,,2,1,2,1,2,,6,5,47,,
8,1,8,1,8,,3,4,2,4,3,,8,7,6,5,
2,3,2,3,2,,7,8,7,8,7-4[8:1],,5,,4,,
2,1,2,1,2,,6,5,6,7,6,,1,2,3,4,
7,6,7,6,7,,1,8,1,8,1,,3,4,25,,
7,3,7,3,7,,2,1,2,3,2,,8,7,6,5,
2,3,2,3,2,,7,8,1-5[8:1],2,36,,1b/8b,,,,
1,5,8,4,7,3,6,2,5,1,4,8,
{32}
1x>6[8:1]/5x<2[8:1],2x>7[8:1]/6x<3[8:1],3x<8[8:1]/7x>4[8:1],4x<1[8:1]/8x>5[8:1],
{8}
,1bp7[4:15]/5bp3[4:15],
