&title=イガク
&artist=原口沙輔/重音テト
&first=0
&des=p ユ
&lv_5=14
&inote_5=(170)
{4},,,
{16},,,,4w8[16:5],,,,,,,,,,,,3b,,6,5,6,,{32}2,1,,,{16}3,,5,,4h[16:4],,,,7,,{32}2,1,,,{16}3,,5,,4h[24:3],,6h[24:3],,3h[24:3],,8h[24:3],,1h[24:3],,7,8,7,,{32}3,4,,,{16}2,,5,,1h[16:4],,,,6,,{32}3,4,,,{16}2,,5,,1,,7,,4x,5x,3x,6x,5x,7x,3x,4x,2b,,{32}7,8,,,{16}6,,4,,5h[16:4],,,,2,,{32}7,8,,,{16}6,,4,,5h[24:3],,3h[24:3],,6h[24:3],,1h[24:3],,8h[24:3],,3,4,2b-5[12:1],,,,2b/8b,,,,6,,7b-4[12:1],,,,7b,,2,,3b-8[12:1],,,,3b,,6b-1b[12:1],,7b,,,,,,
4-1[12:3],,,,1>4[12:3],,,,,,8h[24:3],,,,6h[24:3],,,,5h[24:3],,,,3,4,3>1[12:1],,,,,,,,5qq5[12:3],,,,5bpp5[12:3],,,,,,1h[24:3],,,,2h[24:3],,,,6h[24:3],,,,7,,4x,5x,3x,6x,5x,7x,2x,4x,3-1[12:3],,,,1v8[12:3],,,,8-6[12:2],,,,6,,,,5h[24:9],,4,,,,3h[24:9],,4,,,,5,,6,4,7b<5[12:1],,,,7b/1b,,,,3,,2b>4[12:1],,,,1b/2b,,7,,6b<8[12:1],,,,5b/6b,,3>1[12:1],,4,,3,,5h[16:1],,5-7[12:3],,,,7v5[12:3],,,,,,1h[24:3],,,,3h[24:3],,,,4h[24:3],,,,6,5,6<8[12:1],,,,,,,,4qq4[12:3],,,,4pp4[12:3],,,,,,8h[24:3],,,,7h[24:3],,,,3h[24:3],,,,2,,5x,4x,6x,3x,4x,1x,7x,5x,6-8[12:3],,,,8v1[12:3],,,,1-3[12:2],,,,3,,,,4h[24:9],,6,,,,5h[24:9],,3,,,,4,,6,5,8b-5[12:1],,,,8b/2b,,,,4,,3b-6[12:1],,,,3b,,8,,7b-2[12:1],,,,7b,,4b-1b[12:1],,5b,,,,,,
7qq5[16:6],,,,,,5<1[12:3],,,,,,2,,,,3qq1[16:6],,,,,,1>5[12:3],,,,,,5,,,,7v4[16:6],,,,,,4<7[12:3],,,,,,1,,2,,2>5[16:6],,,,,,5v2[12:2],,,,,,8,,8,,{32}7bx,6,,,3bx,2,,,6bx,5,,,2bx,1,,,4bxh[16:8],,,,,,,,8,,,,8,,,,1bx,2,3,,5bx,6,7,,2bx,3,4,,6bx,7,8,,5bxh[16:4],,,,,,{16},1-4[12:1],,3h[24:9],,1b,,,,
5-8[12:1],,7h[24:9],,5b,,,,4-2[12:1],,5,,4b-8[12:1],,6,,4b,,7,,{32}2,3,4,5,6,7,8,1,2b,,,,,,,,6>4[16:2],,,,4v7[16:2],,,,6,,,,,,,,{16}1,,3-8[12:1],,6,,5,,4-6[12:1],,,,1-3[12:1],,,,7-1[12:1],,,,,,,,
{32}3<5[16:2],,,,5v2[16:2],,,,3,,,,,,,,7,,,,6,,,,4,,,,3,,,,{16}2>4[10:1]/1,,,,2/1<5[12:3],,,,5,4,3,2,1b,,,,{16}6<8[10:1],,5,,6,,2>4[10:1],,1,,2,,6,,7,,1>3[10:1]/8-3[10:1],,,,8-4[10:1]/1-4[10:1],,,,,,,,6,,7,,3h[12:6],,4b,,1b,,5b,,7h[12:9],,,,8b,,6b,,1b,,5b,,3b-5[10:1],,,,3b,,,,6,5,7,,
{32}2-8[16:2],,,,8v3[16:2],,,,2,,,,,,,,{16}5,,7-4[12:1],,2,,1,,8>2[12:1],,,,5<7[12:1],,,,3<5[12:1],,1h[64:1],,3h[64:1],,,,
{32}7-1[16:2],,,,1v6[16:2],,,,7,,,,,,,,3,,,,2,,,,8,,,,7,,,,{16}6-8[10:1]/5,,,,6/5V31[12:3],,,,1,8,7,6,5b,,,,
{16}2-5[10:1],,8,,2,,6-1[10:1],,4,,6,,2,,3,,5<7[10:1]/4-7[10:1],,,,4-1[10:1]/5-1[10:1],,,,,,,,
{16}8,,6,,3b,4,2b,4,1b,4,8b,4,7bh[16:4],,,,6b,5,7b,5,8b,5,1b,5,2b-4[10:1],,,,2b,,,,1,,1,,6,,
{32}3,4,,,{16}1,,7,,8h[16:4],,,,6,,{32}3,4,,,{16}1,,7,,3h[24:3],,1h[24:3],,2h[24:3],,6h[24:3],,1h[24:3],,7,8,7,,{32}2,1,,,{16}4,,6,,5h[16:4],,,,7,,{32}2,1,,,{16}4,,6,,5,,8,,2x,1x,3x,6x,5x,8x,3x,4x,2b,,{32}6,5,,,{16}8,,2,,1h[16:4],,,,3,,{32}6,5,,,{16}8,,2,,4h[24:3],,1h[24:3],,6h[24:3],,5h[24:3],,7h[24:3],,4,4,6<8[10:1],,5,,4,,3<5[10:1],,2,,1,,8>2[10:1],,7,,6,,5<7[10:1],,4,,3,,2-5b[10:1],,8,,,,,,6-8[12:3],,,,8v6[12:3],,,,1,,2,,3,,4-8[8:1],,,,4<7[8:1],,,,1,2,3,,,,4h[12:3],,,,7-5[12:3],,,,5-8[12:3],,,,8v3[12:3],,1,,2,,3bqq5[12:4]*q5[12:4],,,,,,,,,,,,2,4,3,5,3,4,2,8,1,,26,,5,3,4,,37,,4,6,5,,6,1,8h[16:2],,2,1,3h[16:2],,6,4,7,5,8,2,4,3,6b-8[10:1],,5,5,6b,,4,,3,1,2b-4[10:1],,8,8,2b,,7>1[10:1],5,6b,,2,3,{24}4b,5,6,7,8,1,2,3,4w8[150#12:4],,,,,,,,,,,,,,,,,,,,,,{16}5h[64:1]/6,,{64}3-1[10:1],4,,,,,,,{16}7-5[12:1],,3-6[12:1],,7-2b[8:1],,,,,,4>1b[12:1],,{24}8x,7x,6x,,,,{16}5h[12:3],,E8f,,E3f,,6,5,7,5,{32}1s5[12:2],2,,,{16}8,,,,,,,,
{32}
2,1,,,{16}3-1[10:1],,5,,6,,,,4,,{32}6,5,,,{16}8-6[10:1],,3,,2,,1,,5-2b[8:1],4,7,5,8h[12:3],,,,4b,,{32}6,5,,,{16}7-5[10:1],,1,,2,,,,8,,{32}2,1,,,{16}3,,7qq3[12:5],,4,,3,,2,,1,,1h[12:3],,,,4b,2,5b,3,6b,4,7b,5,8h[12:3],,,,5b,7,4b,6,3b,5,2b,4,1bw5[10:1],,,,1b,,,,64,73,82
,,5b,,1-7[10:1],,2-5[10:1],,1-6[10:1],,2-4[10:1],,1-5[10:1],,2,,1,,2<7[8:1],,,,6,,5,,4q8[8:1],,,,8,1,2,3,4,,
7-5[10:1],,8-3[10:1],,7-4[10:1],,8-2[10:1],,7-3[10:1],,8,,7,,8>2[10:1],,,,4,5,6,7,3z7[10:1]*-6[10:1],,,,,,,,3h[24:3],,6h[24:3],,5h[24:6],,,,1,,38,,2>4[10:1]/7,,16,,2-8[10:1]/7-1[10:1],,,,7<5[10:1]/2,,,,,,,,3,8,1,6b,
{24}2b<8[10:1],3,4,7b,6,5,2b,,,6b,5,4,2b,3,4,,,,7b>1[10:1],6,5,2b,3,4,7b,,,3b,4,5,7b,6,5,,,,{16}3b-8[10:1],,,,8-4[8:1],7,6,,4bw8[16:27],,,,,,,,,,,,,,,,,,,,,,,,,,,,,,,,,,E
