&title=THE CELESTIA 180
&artist=Sobrem / Sound piercer “Espitz” Gt.NeLiME
&first=0
&des=FROM UTOPiA
&clock_count=4
&des_5=
&lv_5=14+
&inote_5=(160)
{1}
,
{8}
,,,2z6[24.5#16:9],,,,,
{8}
,7s3[45.5#64:67]*s3[45.5#64:67],,,,,,,
{1}
,,,,
{4}
3h[4:1],5h[4:1],4<7[4:2],,
{4}
3,4,5>2[4:1],,
{4}
5h[4:1],6h[4:1],7h[4:1],8h[4:1],
(150)
{4}
1pp5b[75#8:8],,,,
{8}
,1xV75[8:9],
{4}
,,,
{4}
,,,,
(180)
{4}
1-6[8:1]/8,21,
{16}
2,3,4,5,8,7,6,5,
{4}
8-3[8:1],78,
{16}
7,6,5,4,1,2,3,4,
{8}
7,6,45,45,
{16}
2,4,3,4,2,5,4,5,
{4}
3b-6[12:1],7b-4[10:1],1bw5[8:1],,
{4}
2q6[8:1],8p4[8:1]/2,1q5[8:1]/8,17,
{4}
8b<5[8:1],8b>3[8:1],8b,
{8}
6,6,
{16}
7-1[12:1],5,6,5,
{8}
7,4,
{16}
3-5[12:1],1,2,1,
{8}
3,8,
{16}
7,4,6,5,6,3,5,4,
{4}
6bq3[16:3],,
{16}
2,4h[8:1],2,,3,5h[8:1],3,,,,4,5,4,5,4,5,
{16}
3,6h[8:1],3,,4,7h[8:1],4,,,,6,5,6,5,6,,
{4}
4h[4:1]/7bpp4[8:4],,3h[4:1],,
{16}
2,4,3,7,5,6,1,8,
{4}
2-5[8:1],2b/7,
{16}
4,6,4,6,4,6,4,6,3,5,4,5,2,4,3,4,
{16}
1>4[16:3],,,4<7[16:3],,,7,,,,,,18,,,,
{16}
4,6,4,6,4,6,4,6,3,5,4,5,2,4,3,4,
{16}
1<6[16:3],,,2,,,3p6[16:4]*>8[16:3],,,,,,,,,,
{16}
7h[8:1],,1,8,3h[8:1],,5-2[8:1],4,6,,7h[4:1],,,,,,
{16}
2h[8:1],,8,1,6h[8:1],,4,5,3h[8:1],,,1/2h[8:1],,,7h[8:1]/8,,
{16}
3,4,6,5,2,3,7,6,1,2,3,4,8,7,6,5,
{16}
1h[8:1]/4,,,2h[8:1]/5,,,6h[8:1]/3,,,7h[8:1]/4,,,8b/4b,,8b/4b,,
{16}
5,6,4x,6,5,6,3x,6,5,6,4x,6,5,6,2x,6,
{16}
1>4[16:3],,,4<7[16:3],,,7,,8-4[8:1],,,,81,,,,
{16}
3,4,2x,4,3,4,1x,4,3,4,2x,4,3,4,1x,4,
{16}
2<7[16:3],,,7<4[16:3],,,4>1[16:3],,,,1,,,8,,,
{16}
7x,6,5,4,38,2,1,8,7xV51[4:1]/3h[8:1],,,,1,,,,
{16}
2,3,4,1,8,7,6xpp5[16:5],,4,,3,,2xh[8:1],,,,
{16}
3,4,2,4,1,8,1,8,5,6,5,7,1,8,1,8,
{16}
2,7,2,7,
{32}
1xbh,2,3,4,5,6,7,8,1,2,3,4,5,6,7,8,1q3[4:14],2,3,4,5q7[8:27]*q7[8:27],6,7,8,
{4}
1b,,,,
{4}
,,,,
{4}
,,,,
{4}
,,,,
{4}
2>4[4:1],1,8h[4:1],,
{4}
6<8[4:1],5,4>2[4:1],,
{12}
8,7,6,1,2,3,7,6,5,2,3,4,
{12}
5,6,7,81,2,3,4h[4:1]/6h[4:1],,,,,,
{16}
3,5h[8:1],3,,4,6h[8:1],4,,7,5h[8:1],7,,6,4h[8:1],6,,
{16}
3bp7[8:1],,,5,3b,,,,5,6,7,8,2,3,4,5,
{16}
1,3h[8:1],1,,8,2h[8:1],8,,1,7h[8:1],1,,8,6h[8:1],8,,
{16}
5bq1[8:1],,,2,5b,,,,3,7,3,7,2,6,2,6,
{12}
1>4[4:1],,,4,,8,8<5[16:3],,,5,,1,
{12}
1b,4,3,8b,5,6,2-4[12:1]*-6[8:1],,,2<4[16:7],,,
{4}
2x/B4/B5`E5,,8<3[8:2],2h[4:3],
{16}
E3,E2,E1,E8,E7,E6,E5,E4,E3,E2,E1,E8,E7,E6,E5,E4,
{4}
1b>8[16:7],,,
{16}
5,6,7,8,
{16}
12,3,4,5,6,7,8,1,
{4}
2v5[8:1]/6-1[8:1],26,
{16}
3,4,3,4,2,5,2,5,1,8,1,8,4,7,4,7,
{16}
5,6,4x,6,5,6,3x,6,5,6,8x,6,5,6,1x,6,
{16}
2h[8:1],,7,1,7,8,7,6,7,5,7,4,7,3h[8:1],7,,
{16}
6h[8:1],,2,6,1,6,8,6,7,6,5,6,4,6,3,6,
{16}
2h[8:1],,8,,4,6h[8:1],8,,2h[8:1],,8,,4,6h[8:1],8,,
{16}
7,1,7,1,6,2,6,2,5,3,5,3,6,4,6,4,
{16}
7h[8:1],,1,,5,3h[8:1],1,,7h[8:1],,1,,5,3h[8:1],1,,
{32}
4b,5,6,7,8,1,2,3,4,5,6,7,8,1,2,3,
{4}
4bw8[8:1]/5b,4,
{16}
1xb-5[16:3]/8xb,,,,5>4-2[8:1],5,,7,,8-6[8:1],,8,,2,,1,
{16}
1x,,,,
{12}
7x-5>4-8[16:5],8,7,1-3[8:1],1,1,,,,
{12}
4/6b,6,6,2b,2,2,8b,8,8,4b,4,4,
{24}
6b,5,6,,6,,3b,4,3,,3,,
{12}
6b,5,4,3xb/6,4,5,
{1}
3xb>5[4:7]/6xb<4[4:7],
{1},
{1},
{4}
,,,,
{1}
3xs7[4:14]`6xz2[4:14]*z2[4:14],
{1},
{1},
{1},
{4}
3h[4:1],5h[4:1],4<7[4:2],,
{4}
3,4,5>2[4:1],,
{4}
8bh[8:3],
{16}
6,5,4,3,21,8,7,6,54,3,2,1,
{16}
48,5,6,7,81,2,3,4,51,8,7,6,51,2,3,4,
{4}
5v7[8:1]`8V64[16:3],,{16}
8,1,2,3,84,7,6,5,
{4}
4bv2[8:1]/1bV35[16:3],,8w4[8:1],,
{8}
1-5[8:1],,1-3[10:1]/6h[8:1],,1-5[8:1]/7h[8:1],,1/8h[8:1],,
{4}
7-3[8:1],7-5[8:1]/4h[8:1],7-3[8:1]/2h[8:1],7/1h[8:1],
{8}
24,34,45,46,
{4}
3/7p3[8:1],1q5[8:1]/7,
{4}
1/8h[4:1],
{8}
,
{16}
84,73,6b-1[8:1]/2bv5[8:1],,,,26,,,,
{8}
4h[8:1]/8,6,3/5h[8:1],1,7/8h[8:1],6,2/1h[8:1],3,
{16}
4,8,1,8,2,6,5,6,3bv8[8:1]/7v4[8:1],,,,37,,,,
{24}
1x,2,3,5,6,7,
{16}
4,8,4,8,
{24}
3x,2,1,7,6,5,
{16}
8,4,8,4,
{16}
1,5,3,7,2,6,4,8,
{32}
3b,4,5,6,7,8,1,2,
{4}
3b/5b,
{8}
1-4[8:1]/6,,1-6[8:1]/7,8,1/3x,2,
{16}
1/C,2,3,4,
{8}
8-5[8:1],,8-3[8:1]/2,1,8/6x,7,
{16}
8/C,7,6,5,
{8}
34,34,18,18,6/5<8[8:1],,
{24}
1bqq5[16:7]/5,2,3,
{8}
4,
{16}
1,,,,,,2,3,4,,,,25,,3,4,
{16}
2h[8:1],,8,,64,6,8,,2h[8:1]/4,,8,,64,6,8,,
{4}
1b-4[8:1]/5b-8[8:1],1b<6[8:1]/5b>2[8:1],1b/5b,
{8}
15,37,
{24}
4b,3,2,1,8,7,64,3,2,1,8,7,63,2,1,8,7,6,53,2,1,8,7,6,
{12}
5/1xbh[8:1],,,
{24}
2,8,2,8,2,8,
{32}
3,4,5,6,7,8,1,2,
{4}
3/5,
{16}
1/8V64[4:1],,,,4-8[16:3],4,,3,,2,,1,1,,,,
{16}
1/2V46[4:1],,,,6-2[16:3],6,,7,,8,,1,1,,,,
{16}
8-4[8:1]/1,,,,2,2-6[8:1],,3,,5,,7,7,,,,
{4}
8x<5[8:1]/5>2[8:1],58,1q5[8:1]/5xq1[8:1],15,
{16}
4b,7,5,6,5,6,2b,5,3,4,3,4,1,8,1,8,
{16}
2,1,3,8,2,1,3,8,2,1,3,8,2,1,3,8,
{16}
2b,4,3,5,1h[16:1],,7b,5,6,4,8h[16:1],,2,4,3,6,
{16}
5,7,1,8,2,7,3,6,
{32}
4b,5,6,7,8,1,2,3,
{4}
4/5,
{16}
1xbV35[4:1]/8xb,,,,5-1[8:1],5,,7,,8-6[8:1],,8,,2,,4,
{16}
4x-2[8:1],,,,
{12}
5xV71[4:1],5,5,1x-5[8:1],2,2,3xb,,,
{24}
2b,3,
{12}
46,6,
{24}
1b,2,
{12}
35,5,
{24}
8b,1,
{12}
24,4,
{24}
7b,8b,1b,2b,3b,4b,
{24}
6,5,6,,6,,3,4,3,,3,,5xb,6,7,28,3,4,1bx/5,8,7,46,3,2,
{1}
1bpp4[4:5]/5xbpp8[4:5],,
{16}
2<4[4:12],3,4q2[16:46],,,,,,{4},,,,,,,,,,,,,,E
