&title=マシュマリー ver.桃井愛莉
&artist=桃井愛莉
&first=0.04
&des=Tane
&lv_4=9+
&lv_5=13
&inote_4=(182){1},
{8}34,,2,4,
,3,,24,
{8},,1,,
8,,7,,
{8}56,,6,5,
,4,,46,
{8},,5,,
4,,3,,
{8}24,,2,5,
,3,,45,
{8},,2,,
1,,8,,
{8}47,,7,4,
,6,,5-8[2:1]/4-1[2:1],
{8},,,,
,,,,
{8}3h[4:1],,4,,
5h[4:1],,2,,
{8}1,,3,4,
2,,6,5,
{8}7,,3,4,
1,,8,,
{8}78,,78,,
7,8,6,,
{8}6h[4:1],,5,,
4h[4:1],,7,,
{8}1,,6,5,
8,,3,4,
{8}2,,6,5,
8,,1,,
{8}21,,21,,
2,1,3,,
{8}4^1[8:4],,5,6,
,,,,
{8}5^8[8:4],,4,3,
,,,,
{8}1^4[8:4],,8,7,
,,,,
{8}8^5[8:4],,1,2,
,,,,
{8}3,,7,8^3[8:3],
,,5,,
{8}6,,2,1^6[8:3],
,,4,,
{8}2,,6,5^2[8:3],
,,8,,
{8}7,,3,4^7[8:3],
,,1,,
{8}3,,12,,
3,,12,,
{8}6,,78,,
6,,78,,
{8}3,,12,,
6,,78,,
{8}6,,78,,
6,,78,,
{8}3,,78,,
6,,12,,
{8}6,,12,,
3,,78,,
{8}2,,12,,
7,,78,,
{1}1<4[2:1]/8,
{8}4/5,,,45,
,,,,
{8}24,,,24,
,2,4,,
{8}5/4,,,54,
,,,,
{8}75,,,75,
,7,5,,
{8}45,,,24,
,,,,
{8}45,,,57,
,,18,,
{8}18,,1,8,
,1,,8p1[2:1],
{8},,,,
,,,,
{4}2^5[8:1],1,8-4[8:1],1,
{4}2-8[8:1],7-3[8:1],1,,
{4}2-8[8:1],7-3[8:1],1,,
{4}3-1[8:1],8p4[8:1],2,,
{8}1-5[8:1],,8,,
8-4[8:1],,1,,
{8}1-5[8:1],,8,,
8-4[8:1],,1,,
{1}2q5[2:1],
{1}7p4[2:1],
{4}7^4[8:1],8,1-5[8:1],8,
{4}7-1[8:1],2-6[8:1],8,,
{4}7-1[8:1],2-6[8:1],8,,
{4}8^2[8:1],3-7[8:1],1,,
{8}2-5[8:1],,8,,
7-4[8:1],,1,,
{8}2b/4b,,,,
,,,,
{8}5h[4:3],,1,1,
,1,1,,
{8}4h[4:3],,7,7,
,7,7,,
{8}5h[4:3],,2,2,
,2,2,,
{8}3h[4:3],,7,7,
,7,7,,
{8}5h[4:3],,3,3,
,3,3,,
{8}4h[4:3],,5,5,
,5,5,,
{8}5h[4:3],,3,3,
,2,2,,
{8}3h[4:3],,7,7,
,8,8,,
{4}3-1[8:1],5,
7-5[8:1],1,
{4}3-1[8:1],5,
7-5[8:1],1,
{4}4-2[8:1],6,
8-6[8:1],2,
{4}4-2[8:1],6,
8-6[8:1],2,
{4}5-7[8:1]/1,,1-3[8:1],5,
{4}6-8[8:1],2,4-2[8:1],6,
{4}5/1-3[8:1],,5-7[8:1],1,
{4}3V17[8:5]/7V53[8:5],,,,
{1}6/8h[8:4],1h[8:4]/3,
{1}2h[8:4]/5,4/6h[8:4],
{1}42,57,
{1}45,1pp5[8:5]/8qq5[8:5],
{4}7^4[8:1],8b,1-5[8:1],8,
{4}7-1[8:1],2-6[8:1],5-3[8:1],1,
{4}2-8[8:1],7-3[8:1],4-6[8:1],8,
{4}7^2[8:1],3-7[8:1],6^3[8:1],1,
{8}1-5[8:1],,6,,
8-4[8:1],,3,,
{8}1h[2:1],,,,
5,,37,,
{8}8-4[8:1],,3,,
1h[4:1],,5,5,
{8}3b/7b,,,,
,,,,
{8}3h[4:1],,5h[4:1],,
4h[4:1],,2,,
{8}8,,3,4,
1,,6,5,
{8}7,,3,4,
1,,8,,
{8}78,,16,,
7,8,6,,
{8}6h[4:1],,4h[4:1],,
5h[4:1],,7,,
{8}1,,6,5,
8,,3,4,
{8}2,,6,5,
8,,1,,
{8}21,,38,,
2,1,3,,
{8}4^1[2:1],,,,
,,,8^5[8:6],{1},
{8}4^1[2:1],,,,,,,8b,
&inote_5=(182){1},
{8}5,4,3,5,
4,3,,2,
{8},2,1^4[4:1],,
8,7,6,,
{8}5,4,3,5,
4,3,,25,
{8},3,4,6,
,2,2,,
{8}4,5,6,4,
5,6,,7,
{8},7,8^5[4:1],,
1,2,3,,
{8}4,5,6,4,
5,6,,7/4w8[2:1],
{8},,,,
,,,,
{8}15,,36,,
57,,4,3,
{8}8^5[4:1],1,2,3,
4,,3,2,
{8}5^8[4:1],1,2,3,
4,,4,3,
{8}8,7,1,2,
3,5,4,6,
{8}84,,63,,
42,,5,6,
{8}1^4[4:1],8,7,6,
5,,6,7,
{8}4^1[4:1],8,7,6,
5,,5,6,
{8}1,2,7,8,
,1,2,3,
{8}4,5,6,7,
,1,1,,
{8}3,4,5,6,
,1,2,,
{8}2,3,4,5,
,2,1,,
{8}1,2,3,4,
,7,6,,
{8}5,4,3,2,
,8,8,7,
{8}6,5,4,3,
2,7,1,8,
{8}7,6,5,4,
3,5,2,6,
{8}8,7,6,5,
48,,,,
{8}3,,78,,
6,5,12,,
{8}6,,12,,
3,4,78,,
{8}2-5[8:1],,8,8,
7-4[8:1],,1,1,
{8}2-8[8:1],,7-4[8:1],,
1-5[8:1],,8,8,
{8}7^4[8:1],,1,1,
,3,12,,
{8}2^5[8:1],,8,8,
,6,87,,
{8}7^5[8:1],,1,,
2^4[8:1],,8,,
{8}6,4,3,2,
,8,7,6,
{8}4/5h[8:2],,,24,
,,,,
{8}12,,,12,
,2,1,,
{8}5/4h[8:2],,,75,
,,,,
{8}87,,,87,
,7,8,,
{8}8h[8:2]/1,,,13,
,,,,
{8}1h[8:2]/8,,,68,
,,18,,
{8}18,,1,8,
,1,,28,
{8},37,,46,
4/6p4[4:1],,,,
{8}1-5[8:1],,15,6,
4,3,25,1-5[8:1],
{8},15,7,6,
4,3,25,1-5[8:1],
{8},15,8,7,
6,5,34,2-5[8:1],
{8},25,8,7,
6^3[8:1],,63,2,
{8}1-5[8:1],,18,,
7-4[8:1],8,7,1,
{8}1-5[8:1],,18,,
7-4[8:1],8,7,1,
{8}1,,1,28,
3-1[8:1]/7,,,,
{8}7,68,15,2q5[4:1]/4,
,,,,
{8}8-4[8:1],,84,3,
5,6,74,8-4[8:1],
{8},84,2,3,
5,6,74,8-4[8:1],
{8},84,2,3,
6,7,84,1<5[8:1],
{8},15,4,3,
2,,2^7[8:1],4,
{8}2,,6^3[8:1],8,
6,,1,5,
{8}3b/7b,,,,
,,,,
{8}5,2,2,5,
2,1,7,8,
{8}4,7,7,4,
7,8,2,1,
{8}5,3,3,5,
2,1,6,7,
{8}4,6,6,4,
6,7,3,2,
{8}5,3,3,5,
4,3,6,7,
{8}4,6,6,4,
5,6,4,3,
{8}5,3,2,5,
2,2,5,6,
{8}4,7,7,4,
3,2,7,8,
{12}3,4,2,7,8,6,
2,1,3,6,5,7,
3,5,1,6,4,8,
2,8,4,7,1,5,
{12}3,4,2,6,5,7,
2,4,8,6,4,8,
3,5,1,6,5,8,
1,5,3,7,5,6,
{12}57,,,4,6,2,
8,4,6,3,4,2,
5,3,7,3,5,1,
6,4,8,2,4,8,
{12}17,,,2,1,4,
7,8,5,3,7,1,
{8}8,7,6,5,
4,3,2,1,
{1}6h[8:4]/8h[8:4],1h[8:4]/3h[8:4],
{1}2h[8:4]/5h[8:4],4h[8:4]/6h[8:4],
{1}2/4>7[8:4],5<2[8:4]/7,
{1}4^1[8:4]/5^8[8:4],{8}1,1,82,82,
3^8[8:1]/7^4[8:1],37,37,,
{32}3,2,1,8,7,6,5,,
{8}3b-8[8:1],,
34,5,1,2-5[8:1],
{8},25,8,7,
6^3[8:1]/3,,63,1h[4:1],
{8},3h[8:4],8,7,
6h[8:1],,36,1-5[8:1]/8,
{8},1,8,7,
6p2[8:1],2p6[8:1],,,
{8}1-5[8:1],,15,6,
4,3,7,1/8,
{8},,18,2/7-4[8:1],
,72,1-5[8:1],8,
{8}1,,6^3[8:1],8,
6,1,1,5,
{8}3b<1[8:5]/7b<1[8:5],,,,
,,,,
{8}48,7,36,5,
34,2,5,1,
{8}7^4[8:1],,2,2,
1q5[8:1],,6,7,
{8}38,7,26,5,
14,8,7,1,
{8}2,3,7,6,
45,3,6,,
{8}51,2,63,4,
65,7,4,8,
{8}2^5[8:1],,7,7,
8p4[8:1],,3,2,
{8}61,2,73,4,
85,1,2,8,
{8}3,4,6,7,
,1,6,3,
{8}4,5,6,4,
5,6,,6,
{16},,7,,
8,,{24}1,8,1,
{16}2,,8,,
2,,3,,
{8}4,5,6,,
2,1w5[8:1],,1>7[8:5],
