&title=Easy Game
&artist=和ぬか feat. 和ぬか
&first=-0.02
&lv_5=13
&des_5=kestia
&inote_5=
(166){4},{8},,,,,C,
,E8/E7,,C,,B1/B2,,C,
,B6/B5,,C,,B3/B4,,8h[8:1],
4,7h[8:1],3-5-2[4:1],6-1[8:1],,,,,8,
7,6-4[8:1],7,1-5[8:1],2,,6,
7,8h[4:1],{4}3,{8}7-5[8:1],6,3-1[8:1],2,
,8<3[4:1],,1h[4:1],,,,8-4[8:1]/7-5[8:1],
,8/7,,1,,1>4[4:1],,4-1[4:1],
,1-5[4:1],,8h[4:1],,,,7,
6,2-5[8:1]/1-4[8:1],,2/1,,7,,8,
,1,6,5/7,,1b,,4h[8:1],
{16},3,{8}4,1,8-4[8:1],,8,,,1-5[8:1],
2,7-4[8:1],6,3,1h[4:1],{16},,,,1,
5,{8}1,6,8-4[8:1],,1,,7-4[8:1],
6,1-5[8:1],2,1b,,,,5,
6,4,6,3,4,3,5,8h[8:5]/1-6[8:1],
,1-4[8:1],,1,,7,6,5h[4:1]/4h[4:1],
,,,3/2,1,8,7,6h[2:1],
,1>5[8:1],2,1,,8h[4:1],,B7/E7/B6,
,C,,E2/B1/B2,,C,,B6/E6/B5,
1h[4:1],,,B5/B4/E5,,C,,7h[8:3]/8h[8:3],
,,,C,,E4/B3/B4,,C,
,B2/B3/E3,,8h[4:1],,1,,6,
{16}6,7,{8}5,3,{16}3,4,{8}2,7,{16}7,8,{8}6,
2,{16}2,3,{8}1,7,{16}7,5,{8}6,2,{16}2,4,
{8}3,8,{16}8/3,7,{8}6,2,{16}2,3,{8}4/8,Cfh[4:3],
,,,,,,,6h[8:3],
,5,8h[4:1],7,,6h[4:1],7,8h[8:3],
,7,5,6-8[8:1],,6/5,,2h[4:1]/1h[8:3],
,,,3h[4:1]/2h[8:3],,,,3h[4:1]/4h[8:3],
,,,3b-1b[8:1],,3b,,7h[4:1]/8h[4:1],
,,7,7h[4:1]/5h[4:1],,,5,4h[4:1]/2h[4:1],
,,2,8h[4:1]/6h[4:1],,,,3,
6,2,7,1,8,7,2,6h[8:1],
3h[8:1],5h[4:1],{4}4h[8:1],{8}8,7-4[8:1]/2-5[8:1],6/3,7b/2b,
,8,8,6/1>4v2[4:1],{16}5,5,{8}1,7-4[8:1],8,
7,3x,1pp5[8:3],8h[4:1],,,,8-4[8:1],
7,8/1-5[8:1],2,1/7-4[8:1],6,7/3-8[8:1],2,3/6-1[8:1],
5,6/2w6[8:1],,2b,,E7/E6,E8/E5,1-5[8:1],
{16},1,{8}1/6-2[8:1],{16},6,{8}6/4-8[8:1],{16},4,{8}4/7,,1>4[8:1],
3,7<4[8:1],6,8w4[8:1],,8,,1q5[8:1],
{16},1x,{8}1/7-3[8:1],{16},7x,{8}7/4-1[8:1],{16},4x,{8}4/5-8[8:1],{16},5x,{8}5/1-6[8:1],
{16},1x,{8}1/4-8[8:1],{16},4x,{8}4/3,,1b,1b,8h[8:1],
,7,6,3h[4:1]/5qq5[4:1],,5pp5[4:1],,,,,,2b/1b,
,7b/8b,,5b/4b,
,6,6,5/7,3,3,4/2,6,
6,7/5,,8b/6b,,4b/2b,,5b/4b,
,7,6,5/6,,2h[8:1]/1h[8:1],,,2,
3,3/4,7b/5b,,4b/2b,,8b/1b,
,7,6,5/7,2,3,4/2,4/2,
4/2,4/2,{16},,7b,8b,{8}7b,3b/4b,,6b/2bpp5[8:5],
,7,,7h[8:1],,8,,7,
3,3,8-4[8:1],8,1,2-5[8:1],2,7h[8:1],
,8h[8:1],,8h[8:1],,8h[8:1]/1h[8:1],,7,
5/4,6-1[8:1]/3-8[8:1],7/2,6/3,,C,,7-4[8:1]/8-4[8:1],
,8/7,,1-5[8:1]/2-5[8:1],,2/1,,8,
8,2,2,6,6,4,4,5,
4,6,3,2-6[8:1],3,8-4[8:1],7,1w5[8:1],
,1b,,7/3,,,,7h[4:1],
{4}5h[4:1],{8}6h[8:1],4,8,1/2,3,7h[4:1]/8h[4:1],
,,6,5h[4:1]/4h[4:1],,,,2h[8:1]/1h[4:1],
,3v8[8:1],2h[8:1],3,,7,7,2h[4:1],
{4}4h[4:1],{8}3h[8:1],5,1,8/7,,5/4,
3,5/4,6,5/3,2,6/4,7,4/2,
1,7/5,8,{16}1,8,1,8,1,8,{8}1,7bxh[1:1]/2bxh[1:1],
,,,,,,,,,6/3,
6/3,{16}5,4,{8}5,6/3,7/4,8<4v6[8:3]/3-8[8:1],
7/4,8b/3,,B5/E5/E6,8-4[8:1],1,8/7-3[8:1],6,
7/8-4[8:1],1,7/8,6,,2,1/8,3qq4[4:1],
7,3,8qq5[4:1],7,1,1,2,3>8[8:1],
4,3/5,,5<8[8:1],4,5/3,{16},,5bx/1bx,6x/2x,
{8}7x/3x,8x-2[8:1]/4x-6[8:1],,8x/4x,,7h[8:1]/3h[8:1],,6/2,
1/5,8/4,3/7,6v3[8:1]/2v7[8:1],,6/2,,8<4[8:1],
3,8/2,2,1>5[8:1],6,1/7,7,2,
{16}2,4,{8}3,6/1,8/7,,1b,1b,2>5[4:1],
,5<8[4:1],,8>3[4:1],,3<6[4:1],,6<1[4:1],
,1>4[4:1],,6-8[8:1],,6b-4[8:1],,6b,
3,1,4,2,4,3qq4[8:3],5,3,
,,,E7f/B6/B7,,E3f/B3/B2,,Cf/B6/B5/B4/B3/B2/B1/B8/B7,
,5,6,7/5,,4,3,2/4,
{24},,{12}5/1,{24},,{8}6/8,7b-3[8:1],,7bw3[8:1],,7b,
,2,{4}1h[8:1],8h[8:1]/1h[8:1],7h[8:1]/1h[8:1],
{8}6/1,5v8[8:1]/1v4[8:1],,1b>4[8:1]/5b<8[8:1],,5b/1b,,5h[8:1],
,5h[8:1],,5h[8:1]/4h[8:1],,5h[8:1]/4h[8:1],,6h[8:1]/4h[8:1],
,5h[8:1]/3h[8:1],,5h[8:1]/3h[8:1],,6h[8:1]/5h[8:1],,4h[8:1]/3h[8:1],
,4h[8:1]/3h[8:1],,5h[8:1]/3h[8:1],,5h[8:1]/3h[8:1],,6h[8:1]/3h[8:1],
,6h[8:1]/3h[8:1],,5h[4:1]/4h[4:1],,,,6,
{16}6,5,{8}7,5,3,{16}3,2,{8}4,2,7,
6,5,1,2,3,4h[4:1]/5h[4:1],,,,Ch[2:3],
,B7,,B2,,B6,
,B3,,B8/B1,,B5/B4,,8,
7,6,,2b,2b,2b,,8-5[8:1],
7,8,,2b,{16}2b,4b,{8}3b,,8-4[8:1],
7,8,,2b,2b,2b,,7,
{16},7,{8}8,8,1w5[8:1],1,1b,,8h[8:1],
,8h[8:1]/6h[8:1],,1h[8:1]/3h[8:1],,3h[8:1]/1h[8:1],,5h[8:1]/7h[8:1],
,4h[8:1]/2h[8:1],,8h[8:1]/1h[8:1],,7/2,,6,
6,3,3,7,7,2,2,7<4[8:1],
6,7/1-5[8:1],2,1b/8,{16},,E2,E3,E4,E5,{8}5xh[8:3],
,7x,7x,6h[8:1],8xh[8:1],7h[8:1],1h[8:1],8,
2,8-4[8:1],6,8b/1,,,,2h[4:1]/4h[4:1],
,,,7h[4:1]/5h[4:1],,,,7/6,
8,1,2,3/4,,5,6,7-4[8:1],
,7/2,,1-5[8:1],,1/6,,8,
7,6,5,4b/2b,,,,8-4[8:1],
8,2-5[8:1],2,7-3[8:1],7,1-5[8:1],1,6-2[8:1],
6,3>5[4:1],{4}3,{8},,,6/4,
3,5/4,6,4/3,2,6/5,7,5/3,
2,6/4,7,1b/2b,,7b/5b,,4b/5b,
,8/1,7,1/8,2,7/1,6,2/8,
3,6/8,5,3b/4b,,6b/5b,,1b/8b,
,6/5,7,6/5,4,7/5,8,3/4,
2,4/3,5,1b/2b,,8b/7b,,6b/3b,
,7,{16}7,5,{8}6,2,{16}2,4,{8}3,8,
{16}8/4,7,{8}6,3b-8[8:1]/4b-7[8:1],4b/3b,{16},,,,,,,,,,,,,,,B6,
,,,B2,,,,,,,,,,,{8}B7/E7/B6,
,B2/E3/B3,,7h[2:1],
6,5,4,3h[4:1],,1,,2h[4:1],
1,8,7,5/4,6,5/4,3,6,
4,5,3,5,{4}4,{8}3,8,
6,4,1p5[8:1]/2v4[8:1],2/1,,,,8-4[8:1],
,8/3,,2-5[8:1],,2/7,,6-1[16:1],
,6/3,,4-8[8:1],,4/7,,5-1[8:1],
,5/2,,7,{4}8/6,{8}2,1/3,
6,5/7,3,4-6[8:1]/2-8[8:1],
E
&lv_6=1
&des_6=
&inote_6=
(166){4},
E
