&title=far away
&artist=はちみつれもん
&smsg_5=東方ダンカグサービス終了追悼譜面()
&first=1.02
&lv_1=1
&lv_5=14+
&des_1=音
&des_5=GANTZ
&wholebpm=174
&demo_seek=33.9
&demo_len=11
&inote_1=(174)
{4}1,8,1,8,1,8,1,8,1,8,1,8,1,8,1,8,1,8,1,8,1,8,1,8,1,8,1,8,1,8,1,8,
1,8,1,8,1,8,1,8,1,8,1,8,1,8,1,8,1,8,1,8,1,8,1,8,1,8,1,8,1,8,1,8,E
&inote_5=(174)
{16}
4h[4:1]/5h[4:1],,,,,,45,,,,3,,6,,3,,
4h[4:1]/5h[4:1],,,,,,45,,,,6,,3,,6,,
4h[4:1]/5h[4:1],,,,,,45,,,,27,,36,,45,,
4h[4:1]/5h[4:1],,,,,,45,,,,63,,72,,81,,
1h[8:1]/8h[8:1],,,,2h[8:1]/7h[8:1],,,,3h[8:1]/6h[8:1],,,,4h[8:1]/5h[8:1],,,,
4h[8:1]/5h[8:1],,,,3h[8:1]/6h[8:1],,,,2h[8:1]/7h[8:1],,,,1h[8:1]/8h[8:1],,,,
1,,2,,3,,4,,5,,6,,7,,8,,
1,8,2,7,3,6,4,5,4,5,3,6,2,7,1,8,
1,,17,,26,,3,5,3,5,3,,6h[4:1],,4,3,
2,,82,,73,,6,4,6,4,6,,3h[4:1],,5,6,
7,,17,,26,,3,5,3,5,3,,6h[4:1],,4,3,
2,,8-4[8:1],,,,8/2-5[8:1],,,,2/1-6[8:1],,,,13,,
4,,46,,37,,2,8,2,8,2,,7h[4:1],,1,2,
3,,35,,26,,7,1,7,1,7,,2h[4:1],,8,7,
6,,46,,37,,2,8,2,8,2,,7h[4:1],,1,2,
3,,5-1[8:1],,,,5/3-8[8:1],,,,3/4-7[8:1],,,,42,,
1,,27,,36,,4,5,3,6,4,,36,,4,5,
4,,36,,27,,1,8,2,7,1,,27,,1,8,
1,,27,,36,,4,5,3,6,4,,36,,4,5,
4,,6-1[8:1],,,,6/3-6[8:1],,,,1v4[8:1],,,,12,,
3,,25,,16,,8,7,1,6,8,,16,,8,7,
8,,16,,25,,3,4,2,5,3,,25,,3,4,
3,,25,,16,,8,7,1,6,8,,16,,87,,
1,2,3,,15,,8,7,6,,84,,8,1,2,3,
48,,37,,12,,2,1,2-5[8:1],1,2-7[8:1],,2,,2,,
3,,25,,78,,7,8,7-4[8:1],8,7-2[8:1],,7,,7,,
6,,47,,12,,2,1,2-5[8:1],1,2-7[8:1],,2,,2,,
3,,26,,26,,45,,3,3,6,6,2,2,7,7,
1b,,62,,34,,3,4,3-8[8:1],4,3-6[8:1],,3,,3,,
2,,73,,56,,6,5,6-1[8:1],5,6-3[8:1],,6,,6,,
7,,62,,34,,3,4,3-8[8:1],4,3-6[8:1],,3,,3,,
2,,16,8,7,6,5,4,3,2,1,8,7,,47,,
36,,25,,14,,1,8,7-2[8:1],6,5-2[8:1],,7,,5,,
8,,7,,68,,8,7,6-1[8:1],5,4-1[8:1],,6,,4,,
7h[4:1],,8,,6,,5,4,3-6[8:1],2,1-7[8:1],,3,,1,,
5,,46,,37,,28,,1,8,2,7,3,6,4,5,
4,,47,,48,,8,1,2-7[8:1],3,4-7[8:1],,2,,4,,
1,,2,,13,,1,2,3-8[8:1],4,5-8[8:1],,3,,5,,
2h[4:1],,1,,3,,4,5,6-3[8:1],7,8-2[8:1],,6,,8,,
{12}3,4,3,6,5,6,3,4,2,6,5,7,
{16}
1b/8b,,1,7,1,,17,,8-6[8:1],2,8,,8,,3,,
45,,5,3,5,,53,,4-2[8:1],6,4,,4,,7,,
18,,1,7,1,,17,,8-6[8:1],2,8,,8,,3,,
1-5[8:1]/8,,2,,1/8-4[8:1],,7,,1-5[8:1]/8,,2,,18,,7,,
56,,7,4,7,,73,,2-5[8:1],5,2,,26,,7,,
38,,2,7,2,,16,,6-1[8:1],1,6,,62,,3,,
74,,7,4,7,,73,,2-5[8:1],5,2,,26,,7,,
1b/6b,,,,16,2,3,4,5,6,7,8,1,2,3,4,
5,,7^5[8:1],8,1,,37,,2^4[8:1],1,8,,26,,7,,
47,,6^8[8:1],5,4,,6,,3^1[8:1],4,5,,37,,7,,
5,,7^5[8:1],8,1,,37,,2^4[8:1],1,8,,26,,8,,
2^4[8:1]/7,,1,,2/7^5[8:1],,8,,2^4[8:1]/7,,1,,27,,8,,
84,,1^4[8:1],8,7,,1,,1^4[8:1],8,7,,1,,6,,
73,,7^2[8:1],6,5,,7,,7^2[8:1],6,5,,7,,5,,
25,,2-6[8:1],3,4,,2,,2-6[8:1],3,4,,2,,4,,
{12}7,5,6,2,4,3,8,6,7,1,3,2,
{16}
8bq2[1:1]/4bq6[1:1],,,,,,,,,,,,,,,,
,,,,,,,,3,,4,,5,,6,,
7h[2:3],,,,,,,,,,,,,,,,
,,,,,,,,1,,2,,3,,4,,
3h[8:3],,,,,,8h[8:3],,,,,,5h[1:1],,,,
,,,,,,,,,,,,8,,7,,
,,3,,2,,,,,,6,,3,,7,,
2,,8,,1h[4:1],,,,7,,,,8b/3b,,,,
2pp5[1:1]/1h[1:1],,,,,,,,,,,,,,,,
,,,,,,,,15,,8,,73,,6,,
1h[1:1]/5pp8[1:1],,,,,,,,,,,,,,,,
,,,,,,,,18,,2,,37,,4,,
6h[8:3]/5,,,,,,4h[8:3],,,,,,8h[1:1],,,,
,,,,,,,,,,,,1,,2,,
,,7,,6,,,,,,4,,5,,3,,
6-1[8:1],,2,,6/3-8[8:1],,,,3,,,,6,,,,
2bV41[2:1],,,,26,,,,6h[8:1],,,,6h[8:1],,,,
7bV58[2:1],,,,73,,,,3h[8:1],,,,3h[8:1],,,,
3bV51[2:1],,,,37,,,,7h[8:1],,,,6h[8:1],,,,
6bV48[2:1],,,,62,,,,2h[8:1],,,,3h[8:1],,,,
82,,1,,82,,1b,,24,,3,,24,,3b,,
57,,6,,57,,6b,,71,,8,,71,,8b,,
1,8,2,7,3,6,4,5,4,5,3,6,2,7,1,8,
{24}
1,2,3,4,5,6,7,8,1,2,3,4,
{16}51,,37,,
26,,1b/5b,,
{16}
37,,48,,1,,2^4[8:1],1,2-5[8:1],1,2-6[8:1],,2,,2,,
8,,7,,16,,7^5[8:1],8,7-4[8:1],8,7-3[8:1],,7,,7,,
1,,2,,37,,3^5[8:1],1,3-6[8:1],1,3-8[8:1],,3,,3,,
5,,6,,16,,6^4[8:1],8,6-3[8:1],8,6-1[8:1],,6,,6,,
4,,3,,25,,3^1[8:1],4,3-8[8:1],4,3-7[8:1],,3,,3,,
5,,6,,47,,6^8[8:1],5,6-1[8:1],5,6-2[8:1],,6,,6,,
4,,3,,25,,3,6,4,7,5,,46,,25,,
3,4,3,,15,,6,5,6,,84,,{24}1,2,3,4,5,6,
{16}
7,,2,,82,,1-5[8:1],8,2-5[8:1],7,1^4[8:1],,2,,1,,
7,,8,,17,,8-4[8:1],1,7-4[8:1],2,8^5[8:1],,7,,8,,
3,,2,,7,,2-7[8:1],1,3-6[8:1],8,2^5[8:1],,3,,2,,
8,,7,,6,,7-2[8:1],8,6-3[8:1],1,7^4[8:1],,6,,7,,
1,,2,,3,,5-3[8:1],6,7-5[8:1],8,1-5[8:1]/5,,7,,1,,
8,,7,,6,,4-6[8:1],3,2-4[8:1],1,8-4[8:1]/4,,2,,8,,
2,,8,,47,,6,3,5,2,4,,35,,47,,
6,5,6,,84,,3,4,3,,15,,{24}8,7,6,5,4,3,
{16}
2b/6bw2[2:5],,,,,,,,,,,,,,,,
{1},,,
