&title=てらてら
&artist=和田たけあき x Leo/need feat.初音ミク
&first=0.04
&des=Makyuriyy1
&lv_5=13+
&inote_5=(190)
{4},,,,5h[8:5]/4,
{8}3x,B3,,,E3,,6h[8:5]/3,,3x,B2,,,E2,,7h[8:5]/2,,3x,B2,,,E3,,8h[8:5]/1,,2x,B2,,,E3,,
{8}2/7<4[8:1],,3-8[8:1]/7,3,6,6-3[8:1],,2-7[8:1],,8<5[8:1],,4>1[8:1],4,B6,B5,,2xh[8:3]/6x,,,6,1h[8:3]/7h[8:2],,,7,1/8,1/8,1/8,2b/7b,,,17,
{16}1x,2x,
{8}3x/5h[4:1],,6,,7v4[8:1],7,,8,,
{16}3,4,2,,
{8}6,1-5[8:1]/8-4[8:1],2/7,1/8,,6,,6,,2-5[8:1]/6,2,,8,,
{16}6,5,
{8}7,3,1/2
,1/8,8/7-5-8-4[8:3],,2b,,2,,1-5[8:1],1,,6,,
{16}7,8,
{8}6,2,2/8,3/7,6/4,,5/4,,5/4,,1/8,1/8,,2/7h
[8:5],,4,,6,6b-2[8:1],,{16},,8,,{8}8<4[4:1],,3h[8:1],,3,2,1,B7/B6,,B3/B2,,B7/C/B6,,1-5[8:1],1,6,6pp8[4:1],,8>2[8:1],,4-8[8:1],,4,7hx[8:5],,,1,,1-5[8:1],,1,,
{16}6,,8,7,1,,2h[8:11],,
{8}8,6,,4,,E6,B5,B6,C,,1,2-5[8:1],1,2,,
{16}7-4[8:1],,8,,7,,,,
{8}1,,2/7,3/6,5-2[8:1]/4-7[8:1],,,,8h[1:1],2b,,3h[8:1],,Ch[4:1],,B2,E3/B3,,B6/E7,,B6/B7/B3/B2/E7/E3,,8-4[8:1],8,,3qq1[4:1],,1<7[8:1],,5-1[8:1],,5,2hx[8:5],,,8,,8-4[8:1],,81,,3,3h[8:4],,6,6h[8:3],,,3,3h[8:1]/6,6,2/7,2/7,1h[8:1]/8,8,8,2b-5-8-3-6-1-4-7[4:6]/7h[8:11],,,,,,,,,,,,,,,8,,E8/B7/B8,,B2/B3/E3,,B6/B5/E6,,5/4,,3/6,,2/7,1/8h[2:1],,B2,B3,B4,,,5b<8[4:1],,8b>3[4:1],,3b-7[4:1],,E2,C,E6,4xh[4:1],,6x,8,8,1/2,1/2,3/8,3/8,4/7,4/7,5/6,5/6,7/8,7/8,1/6,1/6,2/5,
{16},,28,,8x,7x,6bx/Cf,,,,2x,3x,4hxb[4:1]/5hx[4:1],,
{8},,7b-2[8:1]/6,,7,3b-6[8:1],,3,8b,,5b/4b,,3/6,3/6,2/7,1b/8b,,17,
{16}2-5[8:1]/8-4[8:1],,17,,2b/8b,,
{8},6-8>1[8:1],,6,2-4<5[8:1],,1/2,,17,,8x,8bx/Cf,,8b-6[8:1]*v2[8:1]/C,,8,,4-2-8<7[4:1]/5,,4/6,5,4,B7/B8,,B7/B8,,5/6,5b/6-8>1[8:1],,B3/B4,,5/3-1-5[4:1],,8-6[8:1],,8,,4x/5x,3,2/6,7,1-5[8:1],7-4[8:1],1>3[8:1],7,1,,3hx[8:3]/1,1,1,1,2hx[8:3]/8,8,8,8,7/1hx[8:3],7,7,7,8b,
{16}3x,4x,2x,6x,5x,7x,
{8}1-6[8:1]/8-6[8:1],,1-3[8:1]/8-3[8:1],,1b/8b,,5,64,,4/3-1<8[8:1],,3/7,7-5-3[8:1],,8-4[8:1]/7,,8b-6[8:1]*-5[8:1],,8b-2[8:1]*-3[8:1],,8b,,45,5/4,,3-5-8[16:3]/6-4-1[16:3],,3/6,,,,,2/7,,4/6-8[8:1],6,5-1[8:1],5,,6,,5x/4x,,73,73,,2v8[8:1]/8v2[8:1],,8x<7-5[8:1]/2x>3-5[8:1],,,,3x/7x,,5,4/6,3h[8:3]/7h[8:3],,,,2h[2:1]/8,,1b,,1b,,17,,
{16}8,,6,5,7,,3,4,2,,6,4,8,,3,5,
{8}1,8h[2:1]/7,,6b,,5,4,2b/6b,
{16}1,8,1,8,
{8}1,2/7,1/8,1/8,,2h[4:1]/6b,,Ch[8:3],,E4,B3/B4/E3/B2,,6x<3[4:1],,3x>6[4:1],,6x<3[4:1],,3x>6[4:1],,4,4,Ch[4:1],,,B6/B7/B8,,B8/B1/B2,,B2/B3/B4,,,5-8[8:1]/4,,5/4,,1,1-4-1[4:1],,1/8,,8,8h[4:1],,6,4,2h[8:1]/8h[8:1],,2h[8:1]/8h[8:1],,8/2h[4:1],,8<4[4:1],8,4>6[4:1],,8x,,,4x,,4h[8:5],6,,6,,7,,12,1/2,,1-5[8:1]/2-6[8:1],3/8,12,,,7,7h[8:5],B4/B3,,B3/B4,,
{16}1,,,1,8,,2/7,,
{8}3/6,4/5<1[4:1],,1>5[4:1],,5<1[4:1],,1,,,2-4[8:1],,2/1,,5,5/6-8[8:1],,4,1b,1-6[8:1]*-3[8:1],,,,,8,8,8/7,8/7,6/1,6/1,5/2,5/2,4/3,4/3,2/1,2/1,8/3,8/3,7/4,
{16}4x,3x,2xb/Cf,,,,8x,7x,6xhb[4:1]/Cf,,
{8},,2b-7[8:1]/3,,2,6b-3[8:1],,6,1b,,4b/5b,,6/3,6/3,7/2,7bh[8:39]/1b,
{16},,B2,B3,
{8}B4,,,,,,2,,2x,3x,,,B2/B3,,,,2x,3x,,,B2/B3,,,,2x,3x,,,B2/B3,,,,2x,3x,,,B2/B3,
,6h[4:3],,B3,B2,,E2/A1,,5h[8:7],,E4,,B3,,B2,,2-4-8[4:1],2,,,1-5-7[4:1],1,,,2-4-8[4:1],2,,,1-5-7[4:1],1,,
{16},,,,8-5[8:1]*-4[8:1],,,,8b,,,,
{8}6,5,7/1,7-5-2[16:3],,1-4[8:1]/7,,1,,,2-6[8:1]/7,,8-4[8:1]/2,,8/1,,1,7,2,1x/7x,,2x/6x,,3x/5x,4b,,B6f/B7/B3/B4,,4/6-8-4[4:1],,1-3[8:1],2,1b,,5,6/4,,7/3,8-4[8:1],2-5[8:1],8,2,{16}8x,7x,6x,,
{16}6xh[4:1]/8,,8,,8,,7,8,7xh[4:1]/1,,1,,1,,8,1,2/8xh[4:1],,2,,2,,2,1,
{8}3b,,3bh[4:1]/5bh[4:1],,,,7/1,6,
{16}2v5[8:1]/8-3[8:1],,,,8b/2b,,
{8},3-1<8[8:1],3,,7<5[8:1],
{16},,7/2x,3x,4x,,
{8},1b/Cf,,1b-3[8:1]*-6[8:1],,1,,5<6-8-2[4:1]/4,,5/3,4,,5-1[8:1],,,,4/3,4b/3-1<8[8:1],,B6/B5,,4-1[8:1]/6-8[8:1],,4/6,,2,B3,,5/4,,7/3,1-5[8:1],3-6[8:1],1,3,6x,7x,8-5[8:1]/4-1[8:1],,8/4,,8/4,8h[4:1]/4h[4:1],,,,1-3-6[8:1]/5-7-2[8:1],
