&title=大风车
&artist=中央人民广播电台少年广播合唱团
&first=0
&des=ThunderMan
&lv_7=风车
&inote_7=(152.65)
{1},
{8}1,8,1,8,2b/7b,2,3,4,8,7,6,5,
{4}1-5[8:1],2-6[8:1],3-7[8:1],4-8[8:1],5-1[8:1],6-2[8:1],7-3[8:1],8-4[8:1],
1-5[8:1],8-4[8:1],7-3[8:1],6-2[8:1],5-1[8:1],4-8[8:1],3-7[8:1],2-6[8:1],
7-3[8:1],8-4[8:1],1-5[8:1],2-6[8:1],3-7[8:1],4-8[8:1],5-1[8:1],6-2[8:1],
7-3[8:1],2-6[8:1],1-5[8:1],8-4[8:1],7-3[8:1],6-2[8:1],5-1[8:1],,{64},
{8}1-5[8:1],1,2-6[8:1],2,3-7[8:1],3,4-8[8:1],4,5-1[8:1],5,6-2[8:1],6,7-3[8:1],7,8-4[8:1],8,
1-5[8:1],1,8-4[8:1],8,7-3[8:1],7,6-2[8:1],6,5-1[8:1],5,4-8[8:1],4,3-7[8:1],3,2-6[8:1],2,
7-3[8:1],7,8-4[8:1],8,1-5[8:1],1,2-6[8:1],2,3-7[8:1],3,4-8[8:1],4,5-1[8:1],5,6-2[8:1],6,
7-3[8:1],7,2-6[8:1],2,1-5[8:1],1,8-4[8:1],8,7-3[8:1],7,6-2[8:1],6,5-1[8:1],5,4-8[8:1],4,3-7[8:1],3,2-6[8:1],2,1-5[8:1],1,8b,,1-5[8:1]/7-3[8:1],3s7[2:1]/5s1[2:1],17,,,,,
{1},{64},,,
{8}8,1,8,1,7b/2b,7,6,5,1,2,3,4,
{4}8-4[8:1],7-3[8:1],6-2[8:1],5-1[8:1],4-8[8:1],3-7[8:1],2-6[8:1],1-5[8:1],
8-4[8:1],1-5[8:1],2-6[8:1],3-7[8:1],4-8[8:1],5-1[8:1],6-2[8:1],7-3[8:1],
2-6[8:1],1-5[8:1],8-4[8:1],7-3[8:1],6-2[8:1],5-1[8:1],4-8[8:1],3-7[8:1],
2-6[8:1],7-3[8:1],8-4[8:1],1-5[8:1],2-6[8:1],3-7[8:1],4-8[8:1],,{64},
{8}8-4[8:1],8,7-3[8:1],7,6-2[8:1],6,5-1[8:1],5,4-8[8:1],4,3-7[8:1],3,2-6[8:1],2,1-5[8:1],1,
8-4[8:1],8,1-5[8:1],1,2-6[8:1],2,3-7[8:1],3,4-8[8:1],4,5-1[8:1],5,6-2[8:1],6,7-3[8:1],7,
2-6[8:1],2,1-5[8:1],1,8-4[8:1],8,7-3[8:1],7,6-2[8:1],6,5-1[8:1],5,4-8[8:1],4,3-7[8:1],3,
2-6[8:1],2,7-3[8:1],7,8-4[8:1],8,1-5[8:1],1,2-6[8:1],2,3-7[8:1],3,4-8[8:1],4,5-1[8:1],5,6-2[8:1],6,7-3[8:1],7,8-4[8:1],8,1b,,1-5[8:1]/7-3[8:1],3s7[2:1]/5s1[2:1],17,,,,,
{1},{64},,
{8}1,8,1,8,2b/7b,2,3,4,8,7,6,5,
{4}1-5[8:1]/8,2-6[8:1]/1,3-7[8:1]/2,4-8[8:1]/3,5-1[8:1]/4,6-2[8:1]/5,7-3[8:1]/6,8-4[8:1]/7,
1-5[8:1]/8,8-4[8:1]/1,7-3[8:1]/8,6-2[8:1]/7,5-1[8:1]/6,4-8[8:1]/5,3-7[8:1]/4,2-6[8:1]/3,
7-3[8:1]/2,8-4[8:1]/7,1-5[8:1]/8,2-6[8:1]/1,3-7[8:1]/2,4-8[8:1]/3,5-1[8:1]/4,6-2[8:1]/5,
7-3[8:1]/6,2-6[8:1]/7,1-5[8:1]/2,8-4[8:1]/1,7-3[8:1]/8,6-2[8:1]/7,5-1[8:1]/6,,
{64},
{8}6q2[8:1],6,5-1[8:1],5,4-8[8:1],4,3p7[8:1],3,4-8[8:1],4,5-1[8:1],5,6-2[8:1],6,3-8[8:1],3,
7p3[8:1],7,8-4[8:1],8,1-5[8:1],1,2q6[8:1],2,1-5[8:1],1,8-4[8:1],8,7-3[8:1],7,2-5[8:1],2,
6q2[8:1],6,5-1[8:1],5,4-8[8:1],4,3p7[8:1],3,4-8[8:1],4,5-1[8:1],5,6q2[8:1],6,3p7[8:1],3,
8-4[8:1],8,7-3[8:1],7,6-2[8:1],6,5-1[8:1],5,4-8[8:1],4,3-7[8:1],3,2-6[8:1],2,1-5[8:1],1,8-4[8:1],8,7-3[8:1],7,6-2[8:1],6,1b,,1pp3[8:1]/5pp7[8:1],3pp5[2:1]/7pp1[2:1],15,,,,
{1},
E
