&title=空中分解
&artist=鏡音レン/すりぃ
&first=-0.12
&des=穹
&lv_5=13+
&inote_5=(200){4},{1},,{4},{6}7h/3h,
2h/6h,7h/3h,
{4}2h/6-2[8:1],5b,{8}3,3,4,6,
5,7h[4:1]/3-8[8:1],,,,5,5,2,
6,4,{16}8,7,{8}6,3,3,4,6,
5,7h[4:1]/3-8[8:1],,,,5,5,1,
{16}7,6<4[16:5],{8}5,{4}2bh[4:1],{8},,5,3,
4,2h[4:1]/6-1[8:1],,,,4,4,7,
3,5,{16}1,2,{8}3,6,6,5,3,
4,2-5[8:1]/6-1[8:1],,,,8,6/5,7,
3/4,2,{16}8-4[8:1],1,7,3h[16:49],,,,,{4}E6,
,E7,,E6,
,E7,7,A5,
8,B6,{8}1-5[8:1],4<7[16:3],,,,2/8,
8/2-6[8:1],8/2,{4}7bh[4:1],{8}5,6,
{4}4h[4:1],{8}5,3,A6,B5,A4,A3,
7,6,4,3,{2}5h[4:1]/A2/E3,
3h[4:1]/D8/A7,{8}8-3[8:1],4>1[8:1],,,,8/7,
8/7,8/7,{4}1bh[4:1],{8}2,8h[4:1]/3-6[8:1],
,,,7,2-5[8:1],6-1[8:1],,,,2,
3h[4:1],7,{4}8<5[8:1],{16}3,2,{8}1,
6,3,8,5,6/4,4,3/5,3,
7,7,1-5[8:1],1,{4}8bh[4:1],{8}4<7[8:1],3,
2,1h[4:1],,7p4[16:7],{2}6pp5[16:5],
{8},3,3,5,{4}4-1[8:1],2-5[8:1],
6<1[4:1],1>4[4:1],{8}5,5,5,6,
4,5,{16}3,4v5-7[16:5],{8}3,{16},,,,,,,,3bx>8b[16:3],
,,7bx/8bx<5b[16:3],,,,,{4}4-8[8:1],2-5[8:1],
1-6[8:1],{8}3,2,1,5<8[8:1],8>3[8:1],3,
,5-2[8:1],5,7,{4}8-4[8:1],{8}2-5[8:1],2,
1-6[8:1],1,4<7[8:1],3,,2pp3[16:3],8,6,
,2,{4}1<5[4:1],5>1[4:1],1,
7-4[8:1],{8}1-5[8:1],1,7,6<3[4:1],,4,
,5,8-4[8:1],8,{4}5b,{8}3,2bq7[8:1],
,5b<4[16:7],,1b,,4-8[8:1],5,5,
,2/6,{4}7/3,6/5-1[8:1],7-4[8:1],
8-3[8:1],{8}6,7,8,4>1[8:1],1<6[8:1],6,
,4-7[8:1],4,2,{4}1-5[8:1],{8}7-4[8:1],7,
8-3[8:1],8,6,5>2[8:1],,1-6[8:1]*-4[8:1],{4}8,
{8},7,6v1[8:1],5/4,{4}2-6[8:1],8-5[8:1],
{8}3>6[4:1],3,{4}7,{8}4-7[8:1],3-8[8:1],4,3,
{16},,1,5,1-6[8:1],5,{8}1,{2}4bh[4:5],
{8},,,5,,2,2,{16}4,3,
5,4,6,5,{4}7<8[4:1],3b,5x,
{8}6/3,4-7[8:1]/1-5[8:1],,,,8,8,5/7,
1-5[8:1],3/4-8[8:1],,,{4}2>1[4:1],6x,
{8}4x-7[8:1],2x-5[8:1],,,,8h[4:1],6,6,
{16}7/4-1[8:1]*-8[8:1],6/3,{8}5/2,,,{4}2h[4:1],{16}4h[32:1],4h[32:1],{8}3,
6,5v2[8:1]*-8[8:1],{16},,,,,,7h/1h,6h/2h,{8}5h/3h,{16}8h,7h,
{8}6h,3h,{16}5,5,5,5,{8}7xh/4-2<1[8:1],7xh,6h,6h,
5-7v8[4:1],5qq4[4:1],{16}B7,B8,E5,B3,,,,,,,1h[16:1],2h[16:1],
1h[16:1],2h[16:1],1h[16:1],2-6[8:1],{4}1h[16:1],
E
