&title=Falling Roses
&artist=谷山紀章; 内山昂輝; 柿原徹也; 細谷佳正
&first=0.02
&des=Jacktified
&lv_6=14
&inote_6=(200)
{1},
{4},,,,
{8}45,,
7-3[8:1],4,7,2-6[8:1],4,2,8bh[8:2],,
1,7,6,2,1>4[8:1],7,1-6[8:1],,1-4[8:1],,1<6[8:1],,1>4[8:1],,1,,
5,3,2,6,5<8[16:2],3,5,,{16}2,8,2,8,2,8,3<6[16:2],,7,,3,,1b,,,,
{8}
8,2,3,7,8<5[8:1],2,8-3[8:1],,8-5[8:1],,8>3[8:1],,8<5[8:1],,8,,
4,6,7,3,4-8[16:2],6,4,,{16}7,1,6x,1,7,1,6x-1[16:2],,2-4[32:3],,6x,,2b,,,,
{8}
5,3,2,6,5<8[8:1],3,5-2[8:1],,5-8[8:1],,5>2[8:1],,5<8[8:1],,5,,
1,7,6,2,1>4[16:2],7,1,,{16}6,4,6,4,6,4,7>2[16:2],,3,,7,,5b,,,,
{8}
4,6,7,3,4>1[8:1],6,4-7[8:1],,4-1[8:1],,4<7[8:1],,4>1[8:1],,4,,
{16}6,1,7x,1,6,1,7x,1,6-8-4[16:4],1,7x,1,6b,,,,
{8}3,2,1,15,2-5[8:1]/6-1[8:1],37,,,,
3,,,,3,,,,3-5[8:1],,1,8,,6-4[8:1],,6,
7,,,,7,,,,7-4[8:1],,8,1,,2-5[8:1],,2,
1,,,,1,,,,1-5[8:1],,8,7h[8:2],,4b,,
75,6,24,3,7>2qq7b[16:10]/5,6,,,,,,,,3,
E1/D2/A1/B1/E2,,,7,1,D7/A6/E7/B7/B6,,45,,E4/D3/A3/B3/E3,,8,2,5,3<6[8:1],,
E1/D8/A8/B8/E8,,,2,8,D3/A3/E3/B2/B3,,54,,E6/D7/A6/B6/E7,,1,7,4,6>3[8:1],,
E1/D2/A1/B1/E2,,,7,1,D7/A6/E7/B7/B6,,45,,E4/D3/A3/B3/E3,,8,2,5,3-8[8:1],,
{16}
8b,,,,6,5,7x,,3,4,2x,,6,,2,,
1b/8b,,,,3,4,2x,,6,5,7x,,3,,7,,
{8}
1b/8b,,7,86,
7,5,6,54,
3,4,2,31,
2,4,3,45,3/6-3[8:1],,,2,,15,4pp7[8:3]/8pp3[8:3],,48,,,,
,
2-6[8:1],7>4[8:2],2,7,,,1-5[16:2],,21,,3-7[16:2],,43,,5-1[16:2],,65,,7,,
{16}3b,4,2b,4,3,,6b,5,7b,5,6,,2,1,3,8,2-6[8:1],1,3,8,,,,,
{16}5x,,5x<8b[8:1],,,,{32}1bqq8[32:6],2bpp3[32:5],3b,4b,,,,,{16},,,,,,
{16}4x,,4x>1b[8:1],,,,{32}8bpp1[32:6],7bqq6[32:5],6b,5b,,,,,{16},,,,,,
{16}6x,,6x<1b[8:1],,,,{32}2b,3,4,5-1[32:4],,,,,{16},,7h[8:3],,,,
{16}3x,,3x>8b[8:1],,,,{32}7b,6,5,4-8[32:4],,,,,{16},,2,,,,
{8}2,1-5b[8:1],8,1,,6-1[8:1],5,46,,3-8[8:1],4,53,,7-4[8:1],8,71,,2<7[16:2],,25,,
{16}6,3,8bh[8:1],,2,7,4bh[8:1],,5w1b[8:1],3,7b,,,,,,{24}2x/8x,37,46,5b,,,,,,
{16}3,4,3,6,5,6,1bpp2[32:6]*qq8[32:6],,,,,,,,,,
{16}6,5,6,3,4,3,8bqq7[32:6]*pp1[32:6],,,,,,,,,,
{16}2,4,2,7,5,7,1-4[32:4],,,,6,7,8-5[8:1],,,,2,3,4>5[8:2],,,,{32}Cf,E4,E3,E2,E1,E8,E7,E6,
{16},,8x,,,,4p8[32:3]/8p4[32:3],,,4>5[32:12],,,,,
{8},,3x,2,1,6,7,8b/1b,,{16}3,5,2,6,3,5,2,6,3,5,2,6,3bh[8:2],,,,
{16}6,4,7,3,6,4,7,3,6pp7b[16:6],4qq3b[16:5],7,3,,,,,,,,,,,1-5[8:1],,,,,,8b,,,,
{8}7>2[8:1],4,7,3-8[8:1],4,3,7bh[8:2],,{16}1,2,3,4,5,6,3,4,5-2[8:1],6,7,8,5b,,,,
{8}6>3[8:1],1,6,2-5[8:1],1,2,6bh[8:2],,{16}4,3,2,1,8,7,2,1,8q1b[8:2],7,6,5,8b,,,,,,
5h[8:2],,,,3,2,1p8b[8:2],8,7,6,1b,,,,,,
4h[8:2],,,,3,2,1-5[8:1],8,7,6,1b,,,,
8,,12,,3,,78,,6,,31,,4/Cf,,,,
6x,5,3x,4,7x,6,2x,3,8x,7,1x,2,{16}8b,,{12}
3,4,3,8x,2,8,
5,6,5,8x,2,8,
3,4,3,8x,2,8,
5,6,5,8x,2,8,
3,4,3,1x,2,1,
5,6,5,7x,8,7,
3,5,3,6x-8-4-2b[16:5],8,6,
{4}
2b,,
{24}
1,2,3,4,5,6,
1,2,3,4,5,6,
1,2,3,4,5,6,
1b,,,
6b,,,
3,4,5,6,7,8,
3,4,5,6,7,8,
3,4,5,6,7,8,
3b,,,
{4}8bq3b[16:58],,,,,4,,,,,5,,,,,
{32},,,,6b,
