&title=designant.
&artist=Arcaea
&first=1.2
&des=?
&lv_5=14+
&inote_5=(200)
{24}
1b/8b,27,3/6z2[12:16],{8}4s8[16:20]/5,,,,,,,,,,,,,,,
6,,6,,,3,,,5,,4,,,7,2,,
{24}
8b/1b,72,6/3s7[12:14],{8}5z1[16:17]/4,,,,,,,,,,,,,
8b-4[12:1],,3b-7[12:1],,5bV71[16:2],,,4b,,,{16}5b,4b,6b,5b,7b,,3b,,8b,,
{8}1b-5[12:1],,,
6,,6,,6,,6,,75,8,1,42,3,,46,46,46,,5h[64:1]/7,,7,1h[64:1],7,,2h[64:1]/8,,3,5,
{16}
3b,4b,2bv5[12:1],,1,,8,,6,,,,47,,,,3,,28,,,,6,,5h[16:2]/7h[16:2],,,48,,,4h[16:2]/2h[16:2],,,51,,,37,,6,5,7v4[12:1],,,,1,,,,2,,5,,3,,6,4,5b<4[12:6],,,,,,,,,,,,,,,,
36,,,,35,,2,,34,,,,56,,,,47,,,,6,5,6,,3,4,2,,18,,7,,46,,,,46,,8,,57,,,,24,,,,35,,,,2,4,3,,6,5,7,,18,,2,,3,4,2,4,1,4,8,4,7,,5h[16:4],,4h[16:2],,,,6,5,7,5,8,5,1,5,2,,4h[16:4],,5h[16:2],,,,2,8,3,7,4,6,5,6,7,6,8,7,1,8,2z6[12:6],1,2,,,,,,,,,,,,,,,,
{24}
4b/7,3,2,1-5[12:1],,,,,,
{16}
6b-2[12:1],,,,4b-8[12:1],,,,7b-3[12:1],,,,1,,2v5[12:1],,,,
8<5[12:2],,,,4,3,2,1,8bV25[16:2],,,,4b-7[12:1],,,,,,2bv5[12:1],,,,1b<5[12:3],,,,
4b,,3,,2,,1h[12:3],,,,
6,4,7,3,8bv5[12:1],,2b,,,,1b-6[12:1],,,,7bv4[12:1],,,,2b-5[12:1],,,,8b,,7<4[12:1],,,,4,,3,2,1,,5,,
46,,46,,47,,47,,38,,38,,12,,12,,34,,2,5,2,,6,1,6,,2,8,2-4[12:1],,,,
{24}
5b,6,7,8-4[12:1],,,,,,
{16}
2b-6[12:1],,,,5b-1[12:1],,,,3b-7[12:1],,,,8,,6v4[12:1],,,,
1>4[12:2],,,,5,6,7,8,1bV74[16:2],,,,5bp1[12:1],,,,,,7bv4[12:1],,,,8bV24[12:3],,,,
5b,,6,,7,,8h[12:3],,,,
3,5,2,6,1bv4[12:1],,7b,,,,8b-3[12:1],,,,2b-5[12:1],,,,7b-4[12:1],,,,1b,,2v5[12:1],,,,
5,6,7,8,4,3,2,1,8b/6b,,,,
43,,43,,52,,52,,6,1,7,2,8bV64[16:3],,,,3V15[16:5]*V16[16:5],,,,,,,,,,,,
38,,2,,16,,5,,4-8[12:1],,4,,3-1[12:1],,3,,7-5[12:1],,7,,8>4[12:3],,8,,
4,5,6,7,8,,,,
6-4[12:1],,3,,6,,2,,1-5[12:1],,8-6[12:1],,1,,8,,3V15[12:4],,2,,7v4[12:1],,6,,,,,,6,7,8,1,
3-5[12:1],,3,,6-2[12:1],,6,,1-7[12:1],,1,,5-7[12:1],,5,,3-1[12:1],,3,,4<8[12:3],,4,,8,1,2,3,4,,,,
2-4[12:1],,8,,2,,5-1[12:1],,6-8[12:1],,5,,6,,
,,3-1[12:1],,5,,3,,8-4[12:1],,7V51[12:3],,8,,7,,
,,2,,3,,48,,26,,,,51,,73,,,,45,,6,,78,,2v5[12:1]/5,,,,1b,,,,,,
74,,6,,53,,2,,1-5[12:1],,8-6[12:1],,1,,8,,4V25[12:4],,3,,7v4[12:1],,6,,,,,,6,7,8,1,
3,4,3,,52,,1,,78,,6,,35,,2,,7,1,8,,26,,35,,4v1[12:1]*s8[12:1],,,,,,,,6,5,7,,48,,25,,47,,16,,35,,7p6[12:3]/8,,,,,,,,,,
4,5,4,5,3,4,3,4,2bv5[12:2],,,,6,,,,8V64[16:2],,4bv7[16:3],,,,2bV83[12:3],,,,,,,,
6,5,4p6[12:3],,,,1,,,,2,,3,,5,,6,,
4V28[16:2],,8bv3[16:3],,,,6bV47[12:3],,,,,,,,
2,1,8p2[12:3],,,,5,,,,
6h[12:3],,,,1,,7p3[12:1]/8,,,,1-4[12:1],,,,1-6[12:1],,,,5-2[12:1],,,,5-8[12:1],,,,,,,,,,46,,7,1,8,,2,,
{12}
34,5,6,17,2,3,45,6,7,82,3,4,{16}
5,6,7,8,1,2,3,4,
{12}
1bs5[12:3]/5,,,,,,6,7,8,3,1,2,8bz4[12:3],,,,,,3,2,1,6,8,7,5bs1[12:3],,,,,,7,6,5,2,4,3,1bs5[12:3],,,4,,,3,,2,6,4,8,
(180)
5bs1[12:3],,,,,,7,6,5,2,4,3,
(170)
8b,1,7,1,8,2,6,4,7,3,5,2,
(150)
6b,6,5,7,1,8,
(130)
3b,3,4,2,5,5,
(100)
6bz2[25#12:4]*z2[25#12:4]/4h[12:3],8
,5,7,3,1,
2bz6[16.7#18:1]/8h[12:3],4,1,3,7,5,
{24}2b/6h[1:1],,,,,,,,,,,,,,,,,,,,,,,,,,,,,,,,,,,
(120)
{8}4z8[12:1]/5-1[12:1],,
(130)
45,,
(140)
{24}
2b/7b,{200}3,{24}6,45,,,,
{16}
3,8,1,8,2,7,8,7,1,6,5,6,1,8,{24}2,3,4,{16}8,2,{24}7,6,5,{16}1,7,{24}2,3,4,{16}7,2,{24}6,5,4,{16}1b,,,,7,4,5,4,6,3,4,3,5,2,1,2,5,4,{24}6,7,8,{16}4,6,{24}3,2,1,{16}5,3,{24}6,7,8,{16}3,6,{24}2,1,8,{16}5b,,,,3,1,2,1,4,8,1,8,5,7,8,7,2,1,{24}3,5,3,{16}8,2,{24}5,4,5,{16}1,7,{24}4,5,4,{16}7,8,{24}6,4,6,{16}3bv8[16:1],,,7b-4[16:1],,,1,,2bv5[16:1],,,6b-1[16:1],,,4,,3h[12:3],,,6,6h[16:4],,,2,1h[32:15],,,7,8h[32:7],
,,,
(150)
{24}
2b/7b,{200}3,{24}6h[64:1],45,,,,
{16}
3h[64:1],8,5,8,3h[64:1],6,1,6,3h[64:1],8,5,8,
2h[64:1],5,{24}3,4,3,{16}7h[64:1],1,{24}6,4,6,{16}3h[64:1],5,{24}2,8,1,{16}7bv4[12:1],,4,,
(155)
3b,,,,6h[64:1],1,8,1,6h[64:1],4,4,4,6h[64:1],2,1,2,
5h[64:1],3,{24}7,4,7,{16}2h[64:1],8,{24}3,5,4,{16}6b<8[12:1],,3,,2>4[12:1]*>4[12:1],,1,,
(160)
{24}7b,6,5,,,,
{16}
6h[64:1],1,4,1,6h[64:1],3,8,3,6h[64:1],1,4,1,
7h[64:1],4,{24}6,5,6,{16}2h[64:1],8,{24}3,5,3,{16}6h[64:1],4,{24}7,1,8,{16}2bv5[12:1],,5,,
(165)
7,7h[16:2],,8b,,6,4,5,2,2h[16:2],,1b,,3,5,4,
6h[12:3],,,3,3h[16:4],,,7,8h[32:15],,,2,1h[32:7],
,,,
(170)
{24}
7b/2b,{200}6h[64:1],{24}3h[64:1],54,,,,
{16}
3h[64:1],8,1,8,
(175)
3h[64:1],6,5,6,3h[64:1],8,1,8,
(180)
4h[64:1],6,5,7,1h[64:1],8,2,5,
(185)
3h[64:1],8,4,6,3h[64:1],7<5[12:1],1,8,
(190)
{24}2b,3,4,,,,
{16}
6h[64:1],1,8,1,
(195)
6h[64:1],3,4,3,6h[64:1],1,8,1,
(200)
5h[64:1],3,4,2,8h[64:1],1,7,2,
(205)
6h[64:1],4,5,3,7h[64:1],2>4[12:1],8,1,
(210)
{24}7b,6,5,,,,
{16}1h[64:1],6,2,5,
(215)
3h[64:1],4,3,5,4h[64:1],6,5,7,
(220)
2h[64:1],1,2,,7h[64:1],5,6,,
(225)
4h[64:1],5,3,,7h[64:1],1,8,,
(230)
{24}7b/2b,63,54,,,,
{16}8h[64:1],3,7,4,
(235)
6h[64:1],5,6,4,5h[64:1],3,4,2,
(240)
7h[64:1],8,7,,2h[64:1],4,3,,
(245)
5h[64:1],4,6,,2h[64:1],8,1,,
(250)
{24}2b/7b,3h[64:1]/6,45,,,,
{16}
7h[64:1],,3,,
(255)
6h[64:1],,2,8,1h[64:1],,,,
(260)
{24}2b/8b,3h[64:1]/7h[64:1],46,5,,,,
{16}
2h[64:1],,6,,
(265)
3h[64:1],,7,1,8h[64:1],,,,
(270)
{24}7b/1b,6h[64:1]/2h[64:1],5h[64:1]/3,4,,,,
{16}
7h[64:1],,3,,
(275)
6h[64:1],,2,8,1h[64:1],,,
(280)
{24}
,2b/7b,3h[64:1]/6h[64:1],4h[64:1]/5h[64:1],,,,
{16}
6h[64:1],,3,,
(285)
7h[64:1],,2,8,1h[64:1],,,,
(290)
{24}
8b,7,6,5,,,(295){8}1h[64:1],7,(300){24}2b,3h[64:1],4,5,,,(305){8}8h[64:1],2,(310){24}7b,6h[64:1],5h[64:1],4,,,(315){8}1h[64:1],8,(320){24}2b,3h[64:1],4h[64:1],5h[64:1],,,(325){8}8h[64:1],1,
(330){16}6h[64:1],,6,,(335){16}3h[64:1],,4,,(340){16}2h[64:1],,2,,(345){16}5h[64:1],,3,,(350)7h[64:1],,7,,4h[64:1],,6,,2h[64:1],,2,,7h[64:1],,7,,1h[64:1],8,1,8,1h[64:1],2h[64:1],3h[64:1],4h[64:1],5h[64:1],6h[64:1],7h[64:1],8h[64:1],1h[64:1],2h[64:1],3h[64:1],4h[64:1],
{24}
8b,7,6,5,4,3,2,1,8,7,6,3,2,1,{16}8,7,6,3,2,1,8,7,6,3,2,1,8,7,6,3,2,1,8,7,6,{12}3,2,1,8,7,6,{8}3,2,1,8,7,6,3,2,1,{6}8V62[12:16],7s3[40#16:1]*s3[40#16:1],
6V48[12:12],,,,,,,,,,,,,,,,{24},,,,,,,,,,,,,,,,
(100)
{16}
4/6h[256:93],,7,,
(110)
8,,1,,
(120)
5/3h[12:3],,2,,
(130)
1,8,,7,
(140)
56,,
(150)
1,,
(160)
24,,
(170)
5,,
(180)
46,,
(185)
2,7,
(190)
1b/8b,,
(195)
,,
(200)
3,4,2v5[12:1],,1,,8,,6,4,,4,7,,3,2,1-5[12:1],,5,,6-8[12:1],,6,,2,3,4,,1,,5,7,
3,4,2v5[12:1],,1,,8,,6,4,,4,7,,3,5,1,4,2,,35,,6,8,,1,7,,
2,4,3,5,4,,
78,,16,,5,3,7,2,6-8[12:1],,4,,3,,5,,21,,83,,4,5,2,7,3-1[12:1],,6,,4,,
5V72[12:3],,6,,3,,2,,4V28[12:3],,3,,6,,5,,7v4[12:1],,6,,8,,1,,2v5[12:1],8,3,1,2b,,,,
7,8,6v1[12:1],,5,,4,,2,8,,8,3,,7,6,5q1[12:1],,1,,3p7[12:1],,4,,7,6,5,,1,,5,3,
7,8,6v1[12:1],,5,,4,,2,8,,8,3,,6,5,8,1,7,,43,,2,1,,4,5,,6,8,7,1,8,,
4,,7h[16:6],,5,4,3,2,1v4[12:1],,8,,7,,6,,5,,3h[16:6],,1,8,7,6,5v8[12:1],,4,,3,,2,,
,,
{32}
6,7,4,3,6,7,4,3,8b,,,,,,,,3,2,5,6,3,2,5,6,1b,,,,
{24}
7,4,7,4,7,4,8b,,,2,5,2,5,2,5,1b,,,,,,
{16}
46,,7,3,5,2,6,4,8b,,12,,
3-1[12:1],4,,5,3b,,6,,7-5[12:1],8,,1,7b,,2,,3,4,,
6,
2,7,8,7,1,,6,3,4,3,5,,2,7,1,6,2,4,3,5,4,6,5,7,1b,8b,2b,1b,3b,,5b,,
28,,7,5,6,2,4,3,7b,,56,,
2,8,,7,4b,,56,,7,1,,2,4b,,35,,2,1,,
3,
8,5,6,5,7,,4,1,2,1,3,,8,7,6,5,
{24}41,2,3,4,,,58,7,6,5,,,
{32}
1b/4,2,3,4,5,6,7,8,1b/6,5,4,3,2,1,8,7,
{16}6b/2b,,,,,,3b/6b,3b/6b,4b/5b,,,1b/8b,,,2b/7b,,45,,,,
(150)
{24}1b/8b,,,,2-7[23#64:1]/7-2[23#64:1],36,4h[12:18]/5h[12:18],,,,,,,,,,,,,,,,,,,,,,,,,,,,,,,,,,,,,,,,,,E
