&title=护花使者
&artist=李克勤
&first=0
&des=阿抹AIMO
&wholebpm=153.86
&first_4=
&first_5=0
&lv_5=12
&inote_1=
&inote_4=
&inote_5=(153.86)
{1},
{4},
{8}8,8,1,1,8,8,6,6,2,2,6,
{8}5,4,3,2,2,1,1,8,8,1,1,5,5,1-4[8:1],1,5,
{8}6,7,8,15,15,48,48,26,26,48,48,15,15,48,48,15,
{8}37,62,15,48,48,15,15,37,37,15,15,48,4-1[8:1]/8-5[8:1],26,48,,
{8}6h[8:1],7h[8:1],8h[4:3],2,2,2,2,,6h[8:1],7h[8:1],8h[4:3],2,2,2,2,,
{8}6h[8:1],7h[8:1],8h[4:1],1,1h[4:1],3,3h[4:1],4,4h[4:1],5,5h[4:1],7,7h[8:1],5h[4:1],3h[8:1],,
{8}4h[8:1],3h[8:1],2h[4:3],8,8,8,8,,4h[8:1],3h[8:1],2h[4:3],8,8,3,8,,
{8}4h[8:1],5h[8:1],6h[4:1],8,8h[4:1],2,2h[4:1],3,3h[4:1],5,5h[4:1],7,7h[8:1],5h[8:3],3h[4:1],,,,
{8}1,{24}1,2,3,{8}5,6,8,5,3,1h[4:1],7h[2:1],,6h[8:1],,4,,45,36,18,
{8}26,2,37,3,15,5,48,8,35,35,16,24,65,38,12,12,47,35,25,46,27,35,18,46,56,1V36[8:3]/3V57[8:3],78,
{4}13,,
{8},8-6[8:1],,8-5[8:1],2-6[8:1],8-4[8:1],2,8,,18,18,1-6[8:1]/8-3[8:1],,18,,,,
{8}6-3[8:1],6-8[8:1],,,2pp5[8:2],2,2,,8,8,1v6[8:1]/8v3[8:1],,18,,,,
{8}57,86,15,3,2-7[8:1]/4-7[8:1],,,,24,13,13,57,1-6[8:1]/3-6[8:1],,,,
{8}7h[8:4]/1,,2,,3,3,38,38,14,25,14,25,4h[8:4],1,,,
{8}3<6[8:1],3,2,1,3<6[8:1],3,2,1,3,3,3qq7[8:3],2,3h[8:2],,,,
{1}1h[8:7]/8-4[8:6],
{4}2b,5b,3b/6b,,
{8}7-4[8:1],7,8,1,2-5[8:1],2,1,8,
{8}7<4[8:1],7,8,1,2>5[8:1],2,1,8,
{8}78,7,18,1,12,1,23,3,23,45,23,45,2v5[8:1]/3-6[8:1],23,,,
{8}7,7,7pp2[16:5]*qq4[16:5],68,7,,,,
{8}2,2,2qq7[16:5]*pp5[16:5],13,2,,,,
{1}1s5[8:6]/8h[8:7],
{4}6b,4b,
{8}3b/7b,6h[8:1],7h[8:1],8h[4:3],2,2,2,2,,6h[8:1],7h[8:1],8h[4:3],2,2,2,2,,
{8}6h[8:1],7h[8:1],8h[8:1],2-6[8:1],2,1-5[8:1],1,8-4[8:1],8,7-3[8:1],7,6>1[8:2],6,8,7,,
{8}8h[8:1],1h[8:1],2h[4:3],4,4,4,4,,8h[8:1],1h[8:1],2h[4:3],4,4,6,4,,
{8}5h[8:1],6h[8:1],7h[8:1],8-4[8:1],8,2-6[8:1],2,5-1[8:1],5,3-7[8:1],3,2<5[8:2],2,3,4h[2:1],,,,
{8}8,{24}8,7,6,{8}4,3,1,4,6,8h[4:3],2h[8:1],,7h[8:1],,4h[8:1],,48,83,17,
{8}2/7-3[8:1],8,7/2-6[8:1],1,7-3[8:1]/2,8,7/2-6[8:1],1-5[8:1],2-4[8:1],1-7[8:1],2-6[8:1],1,2,5,6,7,
{8}8/1-4[8:1],2,1/8-5[8:1],7,1-5[8:1]/8,2,1/8-4[8:1],7,8/1-6[8:1],2-5[8:1],1qq5[16:5],2,,,3b,,
{16}1-4[8:1],,,{16}1,{8}1,8,3-8[8:1]/7-4[8:1],37,37,,2pp5[8:3],2-6[8:1],2,,,,7b,,
{16}8<5[8:1],,,{16}8,{8}8,1,6-1[8:1],2-5[8:1],6,2,8-6[8:1],8-5[8:1],8qq4[16:5],,,,2b,,
{8}3-8[8:1]/1b,3-6[8:1]/6b,3-7[8:1]/4b,,,,6b,,
8>3[8:1]/6b,8<5[8:1]/2b,8-4[8:1]/6b,,,,1b,,
{8}2h[8:4]/8b,,7b,,6b,6,6/8,6/8,5/7,2/8,5/7,2/8,5-8[8:1]/7v6[8:1],57,,,
{8}1/8-5[8:1],1,18,2,1-4[8:1]/8,1,18,7,8,8,8p5[8:2],1-4[8:1]/7,8,,,,
{8}3bz7[8:6]/7b,2h[4:1],,,1,1,4,4,5b,,8b,,2b/5b,,,,
{8}8>3[8:1],8,7,6,6>3[8:1],6,7,8,1<6[8:1],1,2,3,3<6[8:1],3,2,1,
{8}68,2,17,3,28,4,13,5,46,28,46,28,3-7[8:1]/7-3[8:1],37,,,
{8}58,14,2<5[8:2]/3<8[8:2],14,23,,,,67,58,1V72[8:2]/4V63[8:2],67,14,,,,
{8}8b-5[8:6]/4b,{16},4,{8}2,1,3,4,1-4[8:1],3,1b-3[8:1]*-5[8:1],,1bw5[8:1],,1b,,
{8}8,1,2,8,2,8,,2,1,8,7,1,7,1,,7,8,1,2,2h[4:1],4,4h[4:1],8,8h[4:1],6,6h[4:1],2,2h[8:1],8h[4:1],4h[8:1],,
{8}4,5,6,7,1,7,1,,4,5,6,17,17,8,17,,5,4,3,2,2h[4:1],8,8h[4:1],4,4h[4:1],6,6h[4:1],2,2h[8:1],4h[2:1],8h[8:3],,,,
48,15,26,{24}2,6,3,{8}5,4h[8:1],8h[8:1],6h[8:1],7h[4:1],,5h[4:1],,4h[4:1],,
3,2,1,68,61,31,38,25,24,74,75,68,75,68,75,17,
45,36,27,18,48,36,15,45,67,24,78,28,2bpp6[8:3]/8qq4[8:3]b,4b/6b,2b/8b,,
{1},E
