&title=PHOTON BLAXT
&artist=seatrus
&first=0.01
&des=GLover
&lv_5=14
&inote_5=(165)
{1},,
{16}1-7-5-3-1>8[4:6]/6h[4:7],,,,,,,,,,,,,,,,,,,,,,,,,,,,,,1,2,3xqq8b[4:3]/8x<4[4:1],,,,,,,,,,,,,,,,5w1[4:2],,,,,,,,,,,,,,,,3h[16:2]/8,,,,3h[16:2]/7,,,,3h[16:2]/6,,,,3h[16:2]/5,,,,6h[8:1]/4,,,,6h[8:1]/3,,,,6h[8:1]/2,,,,6h[8:1]/1,,,,7/8,,7/8,,1/2,,1/2,,3/6,,4/5,,3/6,,2/7,,1,8,2,7,1,8,2,7,8-4[12:1]/1-5[12:1],2/7,3/6,,1b/8b,,,,
{16}3h[4:1],,1,,6h[4:1],,8,,1,7,1,7,2,8,2,8,3h[4:1],,1,,7h[4:1],,5,,4,6,4,6,3,5,3,5,2h[4:1],,4,,7h[4:1],,5,,4,6,3,5,2,4,1,3,8h[4:1],,6,,1h[4:1],,3,,4x-1[12:1],5,6,7,8/4x,,,,1h[16:1]/2h[16:1],,1h[16:1]/2h[16:1],,3h[16:1]/8h[16:1],,3h[16:1]/8h[16:1],,5-1[12:1]/6-2[12:1],,4/7,,5/6,,,,7h[16:1]/8h[16:1],,7h[16:1]/8h[16:1],,1h[16:1]/6h[16:1],,1h[16:1]/6h[16:1],,2h[16:1]/5h[16:1],,4h[16:1]/7h[16:1],,1hb[4:1],,,,2-6[12:1],3,4,5,2x/6h[4:1],,,,
{24}7-3[12:1],8,1,2,3,4,5h[4:2]/7x,,,,,,
{16}2,,1,,8,,7,,5w1b[8:1]/6,,2/8,,5b/Cf,,,,
1xb/8xb,,,,2,4,3,,7,5,6,,3,4,3,,6,5,6,,3,3,4,,6,6,5,,7h[4:1],,,,4,4,6h[8:1],,3,3,5h[8:1],,2,2,4h[8:1],,1,1,8h[8:1],,1,7,2,6,3,5,4,6,3,7,2-6-2[24:5],,8-4b[12:1],,2,,8,,,,1x,3,1,,8,6,8,,2,4,2,,7,5,6,4,5,3,4,2,3,1h[16:1],,8,1h[16:1],,7,,1x-5>2[4:1],,1x,,,B5/B6,,,8x-4<7[4:1],,8x,,,B4/B3,,,2,,1/8,,7,,1/8,,3v8<6[16:3]/6v1>3[16:3],,1/8,,3/6/Cf,,,,
4x/5x,,,,2,8,2,,7,1,7,,2,1,2,1,4,5,8,7,4,5,3,6,2x-8[12:1],,7x-4[12:1],,2-6b[12:1],,7,,2b,
,,,7,5,6,,2,4,3,,2/6,,4/8,,3/7h[12:1],,,2/6h[12:1],,,1/5h[12:1],,8/4h[12:1],,,7/3h[12:1],
{24}8,1,2,3,4,5,
{16}6b-1[12:1],,,,6/3b-8[12:1],,,,3/7b-4[12:1],,,,7/1b-5[12:1],,2,,1x/8xb-4[12:1],7x,,3x,2x/8x,,
{24},1x/5x,2x/6x,
{16}3xb-8b[12:1]/7xb-4b[12:1],,1x/5x,,3b/7b,,,,
1>4[12:1],,2,,1/8,7,6,,6<1[12:1],,7,,6/2>5[12:1],,3,,2/1x,8,7,,7-2[12:1],,6,,7/4w8[12:1],,3,,4b,,,,
{16}2h[16:1]/8x-4[12:1],,2h[16:1],,2h[16:1]/8,,2h[16:1],,2h[16:1]/5x<8[12:1],,2h[16:1],,2h[16:1]/5,,2h[16:1],,
3h[16:1]/1xv6[12:1],,3h[16:1],,3h[16:1]/1x,,3h[16:1],,3h[16:1]/5x-7-1b[12:1],,3h[16:1],,3h[16:1]/5b,,3h[16:1],,
4x/8x,,2/6,,7/C,,3/C,,1x/5x,,3x/7x,,6/C,,2/C,,8x-4[8:1],,4xv6[8:1],,8x,,A4,,3,,1bh[4:1],,,,,,
7h[16:1]/1x-5[12:1],,7h[16:1],,7h[16:1]/1,,7h[16:1],,7h[16:1]/4xv1[12:1],,7h[16:1],,7h[16:1]/4,,7h[16:1],,
6h[16:1]/2x-7[12:1],,6h[16:1],,6h[16:1]/2,,6h[16:1],,6h[16:1]/8x-4[12:1],,6h[16:1],,6h[16:1]/8,,6h[16:1],,5/7,,4/6,,3/5,,2/4,,1,2,3,4,
{32}5/8,7,6,5,4,3,2,1,
{16}8bs4z8b[4:2]/Cf,,,,,,,,,,,,,,,,4/5,,4,6,,5,,7h[16:7],,,3,,2,,1,,1/8,,8,2,,1,,3h[16:7],,,8,,7,,6,,4/5,,6,2,,3,,8h[16:5],,2x,3,4,5,6,7,8,1/5,,2,4,,3h[16:3],,,1-5[12:1],8,7,6,5x/1x,,,,
7b,8,1,2,3,4,5/2b,1,8,7,6,5,4/8b,7,6,5,4/1b,2,3,4,5,6,7,8,
{24}1x,5,1,5,1,5,1,5,1h[6:1],,,,
{16}8,7,6,5,7,6,5,4,1,2,3,4,2,3,4,5,8,7,4,3,7,6,3,2,6,5,2,1,8xbh[4:1],,,,
7-2-5-8-3-6[4:3],,,,2x,,,,4x,,,,3x,,,,2-7-4-1-6-3[4:3],,,,7x,,,,5x,,,,6x,,,,8-4<6-2<8[4:3],,,,2x,,,,3x,,,,4x,,,,3-7>5b[4:2],,,,7x,,,,6x,,,,7xh[8:1],,,,
4xh[16:1]/8xh[16:1],,5xh[16:1]/6xh[16:1],,1xh[16:1]/5xh[16:1],,4xh[16:1]/3xh[16:1],,2-6[12:1]/6-2[12:1],,1/5,,A2/A6,,,,
1xh[16:1]/5xh[16:1],,4xh[16:1]/3xh[16:1],,4xh[16:1]/8xh[16:1],,5xh[16:1]/6xh[16:1],,3-7[12:1]/7-3[12:1],,4/8,,A3/A7,,,,
8x/4x-8[12:1],7,6,5,4x,,,,
{24}4x/8x,1/5,2/6,3/7,4/8,1/5,2p8b[8:4]/6p4b[8:4],,,,,,
{16},,,,,,,,,,,,1,2,3,4,5/6<1[8:1],,,,6/2-5[8:1],,3,,2/7-2[8:1],,6,,7/4>1[8:1],,3,,4/8x,7,6,5,4/8x,7,6,5,8x,4,7,3,6,2,5,1,6h[8:1],,8,7,4,5,2,1,3,8,,2xbh[16:3],,,8,,8x,1,8,2,8,3,8,4,7,5,7,5,1,3,1,3,
8<5[8:1],,,,8/2>5[8:1],,1,,2/6x,7,8,1,2/6x,7,8,1,
2/8x,7,6/1x,2,3/7x,6,5/2x,3,4h[16:3],,,7h[16:3],,,2h[8:1],,8<5[8:1],,,,3/8-4[8:1],,3,,2/8<5[8:1],,2,,8/3,,
{24}3x,2x,1x,
{16}4x/8x,,,1/5,,,2/6,,,3/7,,,
{32}4/8,7,6,5,4,3,2,1,
{16}8-3[8:1],,,,4/8<5[8:1],,4,,2/8-4[8:1],,2,,8/1,,1,,2,3,1,8,5,6,1,8,3,4,2,6,5,7,4,8xh[16:1],,6xh[16:1]/2xh[16:1],,,8xbh[16:6],,2,,2,3,,4xh[16:3],,,1,3,8,2,7,1,6,8,5,4,6h[4:1],,,,
{24}7,8,1,2,3,4,
{16}5bw1b[12:1],,2/8,,5b,,,,2b-8b[12:1],,,7,7bv4b[12:1]/2b,,6,,7b/2b>5b[12:1],,,,2b,,
{32}5x,6x,7x,8x,
{16}1bx,,,2xb/8xb,,,
{32}1xb-6-2-5b[16:10],2/8,3/7,4/6,
{16}5,,,,,,,,8bh[4:2],,,,,,,,4,,,6/C,,,3/C,,,2/7,,,
1/8,1/8,1/8,1/8,1x>3[12:1]/8x,,,,1-4[12:1]/6,,,,1-5[12:1]/7,,,,1/8-4[12:1],,7,,8-5[12:1]/3,,,,8<6[12:1]/2,,,,8/1>4[12:1],,,,1-5[12:1]/8,,7,,1/8-4[12:1],7,6,,8<5[12:1]/3,,3,2,1-5[12:1]/8,,2,,1/6,,
{24}6,7,8,
{16}1<6[12:1],,8,,1/2>5[12:1],,3,,1/2,8,7,,7xh[4:1],,,,
1b,7,3,7,5,7,1b,7,3-5-2[6:1],7,5,,,,,,
{16}1x/7x,,8,8,8,8,8,8,8xh[8:1],,
{24}1/7,2/6,3/5,4,,,,,,
{16}6-1[12:1],5,7,4,6,,,,
{32}2,8,2,8,2,8,2,8,2q5[4:3],,,,,,,,
{16}E1,,,E8,,,E7,,,E6,,,Ch[32:1],,,,
&inote_7=(165)
{16}1>3[12:1]/8,,,,1-4[12:1]/6,,,,1-5[12:1]/7,,,,1/8-4[12:1],,7,,8-5[12:1]/3,,,,8<6[12:1]/2,,,,8/1>4[12:1],,,,1-5[12:1]/8,,7,,1/8-4[12:1],7,6,,8<5[12:1]/3,,3,2,1-5[12:1]/8,,2,,1/6,,
{24}6,7,8,
{16}1<6[12:1],,8,,1/2>5[12:1],,3,,1/2,8,7,,7h[4:1],,
