&title=Antler
&artist=Juggernaut.
&first=0.23
&des=STEXxx
&lv_5=13+
&inote_5=(90){4},{16},,,,,,,,,,,,,,,,6,
5,4,3,,,,,5,4,3,2,
,,,,6,5,4,3,,,,,6/4,5,4,3h[16:3],
,,{8}5,{16}3,4,5,6,,,,,4,5,6,7,
,,,,3,4,5,6,,,,,2/5,3,4,5,
{8}6/3,{16}5,{32}3x,2x,{8}1x-4[8:1],2,1,{16}6,7,{8}8-5[8:1],2,
2,1,{16}2,3,4,5,3,4,5,{32}3x,2x,{4}1x/8x<4[4:1],
{8}3,3,1-4[8:1],7,7,{16}6,7,{8}8<5[8:1],{16}3,{32}3x,2x,
{8}1x,1,2/6,{16}3,5/3-7[8:1],,6,,3,4>8[16:3],5,6,7,
{4}4,{16}6,5,4,3,{4}C,{16}5,4,3,2,
{4}C,{16}6,5,4,3,{4}C,{16}6,5,4,3,
5,4,3,2,3,4,5,6,{4}C,{16}4,5,6,7,
{4}C,{16}3,4,5,6,{4}C,{16}3,4,5,6,
4,5,6,7,{8}4/8x-5[8:1],3,8x/2,{16}3,2,{8}1>4[8:1],{32}4,5,6,7,
{8}8,8,{16}7,6,5,4,6/3,5,4,{32}6/3,7/2,{4}8/1>5[4:1],
{8}6,6,8-5[8:1],3,2/8x,{16}3,2,{8}1>4[8:1],{16}6,{32}6,7,
{8}8,8,{16}7/3,7/3,6/2,6/2,{32}1,5,1,5,2,6,2,6,{8}2V46[8:1]*-5-7[8:1],B8/E8/B7,
{4}2w6b[16:1],{8}2b,4/8,5/1-6[16:1],{16}3/7,6,{8}1b/5,{32}7,8,1,2,
{8}7/3,5/2,{16}7b/4b,6,5,4,6b/3b,4,{32}5,1,2,3,{4}4/8b-4[16:1],
{8}8x/4w8b[16:1],1x,4b,2/6,5/3-7[16:1],{16}7,6,{8}3b/5,{32}8/4,1/5,2/6,3/7,
{8}8/4,6/2,8b/3b,{16}7,6h[8:1],5bx,4h[8:1],,,5b/3b,4,5,6,
{8}B2/B1/E2/7w3b[16:1],E1/B1/B8,7b,5/1,4/8-3[16:1],{16}6/2,3,{8}8b/4,{32}2,1,8,7,
{8}2/6,4/7,{16}2b/5b,3,4,5,3b/6b,5,{32}4,8,7,6,{8}5/1b,7/3,
4/6-2[16:1],2,6x/4b,{32}1,8,7,6,5,4,{16}7/3h[8:1],,8,{8}1b/5,{32}1,2,3,4,
{8}5h[8:1],1,{16}8b/4,3,2,1,8b/5,4,3,2,{4}1>4[16:1]/4b<7[16:1],
{48}E2,E3,E4,E5,E6,E7,E8,E1,E2,E3,,,{16}3x,4,5,6,,,,,4x,5,6,7,
,,,,6x,5,4,3,,,,,5x,4,3,2,
,,{8}5/1,{16}5x,6,7,8,A1,A2,A3,A4,4x,3,2,1,
A8,A7,A6,A5,5x,6,7,8,A1,A2,A3,A4,4x,3,2,1,
A8,A7,A6,A5,{8}4x/5x,{16}3,3,{8}B7/B8/E8,B7/E8/B8,4/5,{16}3,3,
{8}B8/E8/B7,B8/E8/B7,4/5,{16}7,7,{8}E2/B1/B2,E2/B1/B2,4/5,{16}3,3,
{8}B8/E8/B7,B8/E8/B7,5/4,{32}4,5,{16}4,5,6,7,8,{8}5/4,{32}3,4,{16}3,
5,6,7,8,{8}5/4,{32}4,5,{16}4,1xpp4[8:3]/8xqq5[8:3],7/2,3/6,5/4,{4}8x/1x,
{24},,,,,,6/3,{48}1x,2x,3x,4x,8x,7x,6x,5x,{24}3x/4x,{32}8,7,{48}8,,7x,6x,5x,4x,8x,1x,2x,3x,7x,6x,5x,4x,8x,1x,2x,3x,4x,{24}8x/5x,
{12}4x/7x,{48}5x,6x,5x,6x,4x,6x,3x,6x,{24}2x,{48}1x,2x,3x,4x,8x,7x,6x,5x,{24}3x/4x,{32}8,7,{48}8,,7x,6x,5x,4x,8x,1x,2x,3x,7x,6x,5x,4x,8x,1x,2x,3x,4x,{24}8x/5x,
{8}4x/7x,{32}8,1,2,3,{24}4/6,{48}8x,7x,6x,5x,1x,2x,3x,4x,{24}6x/5x,{32}1,2,{48}1,,2x,3x,4x,5x,1x,8x,7x,6x,2x,3x,4x,5x,1x,8x,7x,6x,5x,{24}1x/4x,
{12}5x/2x,{48}4x,3x,4x,3x,5x,3x,6x,3x,{24}7x,{48}8x,7x,6x,5x,1x,2x,3x,4x,{24}6x/5x,{32}1,2,{48}1,,2x,3x,4x,5x,1x,8x,7x,6x,2x,3x,4x,5x,1x,8x,7x,6x,5x,{24}1x/4x,
{8}5x/2x,{32}8,7,6,5,{16}4/3,{32}2,1,2,1h[16:3],,,2,3,4,5,6,8x,6x,8x,6,5,4,3,2,1h[16:3],,,2,
3,4,5,6,7,8,1,{48}2/8h[12:1],3,4,5,6,,,,,7/1h[12:1],6,5,4,3,,,,,{8}5/4,{48}4/6h[12:1],3,2,1,8,,,,,5/3h[12:1],6,7,
8,1,,,,,{8}7/3,{48}7/1h[12:1],6,5,4,3,,,,,2/8h[12:1],3,4,5,6,,,,,{8}5/4,{48}5/3h[12:1],6,7,8,1,,,,,4/6h[12:1],3,2,
1,8,,,,,{8}2/6,{24}6b/3b,{48}2x,1x,8x,7x,2x/6x,1x,8x,7x,{24}6bx/4bx,{48},,,,,,6bx/3bx,7x,8x,1x,2x,3x,{24}8bx/4bx,{48}5x/1x,6x/2x,7x/3x,8x/4x,{16}5x/1x,6bx/2bx,
1xv3b[16:1]/5xv7b[16:1],1x/5x,{32}1x/5x,4x/8x,3x/7x,2x/6x,{4}1bx/5bx,
E
