&title=Rainmaker
&artist=kamome sano
&first=0.07
&des_5=Ring vs. apricot
&lv_5=14
&inote_5=(180)||s5/4
{8},,,,,,,,,,3,
3,4/2,3,3,4/2,
3-5[8:1],2/4h[8:3],{4},{8}6,6,5/7,6,
6,5/7,6-4[8:1],7/5h[8:3],{4},{8}2,2,
3/8,2,2,3/8,2-5[8:1],3/8h[8:3],{4},
{8}7,7,1/6,7,7,1/6,7-3[8:1],1h[8:3]/6,
{4},4xh[4:5],{12}E1,E8,E7,E6,E5,E4,
E3,E2,E1,E8,E7,E6,{4}5hx[4:3],{12}D6,D7,D8,
D1,D2,D3,3xp8[4:3],,5x,,7xh[6:5],,,,,,,,,,6qq1[6:5],
,4,,{4}2h[1:1],
,,,8-4[8:1],
{8},,2/6,5,4h[8:3],,,3,
2,1,{4}2V86[2:1],{6}2/8,6,5,
{4}4h[4:1],6h[4:1],{6}8h[4:1],{24}1,2,{8}3,6,
7,4,6,7,1/8,3,7h[8:1],5h[8:1],
6h[8:1],3h[8:1],4h[8:1],2h[8:1],8h[8:1],6h[8:1],4,3/2,
1,2/8,7/3,4,5h[8:3],,,6,
7,8,{4}7V13[2:1],{6}7/1,3,4,
5h[6:1],7h[6:1],1>4[8:1],8,{24}7,6,{8}5,3,
4,2/5,6,8,3/6,1,4/7,2,
{16}7,5,7,5,{32}E7,B6,B5,E5,{16}1,1,{32}E8,B7,B6,E6,E3,B3,B4,E5,{4}A5f/8w4[4:1],
{12},,,,,,4,6,3,7,2,8,
{16}1-5[8:1],1,1,1,{4}1x,{16},,,,,,,,,,,,,,,,5,
6,7,8,{4}1x/2x-6[8:1],
{8}2,5,{4}4-7[8:1]*-1[8:1],4-8[8:1],{8}4/2,3,
{4}1-5[8:1]*>4[8:1],1-6[8:1],{8}1,3,{4}5/4>1[8:1],
{8}4,{16}7,6,{8}5h[4:3],1,8,7,6,4,
3h[4:3],2,1,8,7,6,5h[2:1],2,
8,6,4,3/5,2/6,1/7,{4}8-4[8:1],
{8}8/2,3,{4}5-8[8:1]*-2[8:1],5-1[8:1],{8}5/7,6,
{4}8<5[8:1]*-4[8:1],8-3[8:1],{8}8,7,{4}2h[4:1]/6v1[8:1],
{8}6,{16}2,3,{8}4h[4:3],8,7,1,6,2,
5,3,5,4/6,{4}3/7<3[4:1],{8}3q7[4:1],1h[4:1],
{4},2h[4:1],{8}7h[8:1],{16}5,6,{4}5V38[4:1],
{8}5/3,2,{4}1>4[8:1]*<6[8:1],1-5-2[4:1],{8}1/8,7,
{4}6<1[8:1]*q2[8:1],6-4-8[4:1],{8}6/4,3,{4}2<7[8:1],
{8}2,{16}6,5,{8}4h[4:1],{16}1,2,{8}3h[4:1],{16}8,7,{8}6h[4:1],{16}3,4,
{8}5h[8:1],{16}7,7,{12}5,6,4,5,3,4,8,7,1,
8,2,1,3-8[8:1],{24},{8}4,{4}7-4[8:1]/3-5[8:1],3/7,
{8}1/2,3,8-3[8:1],7,6-1[8:1],5,{4}2-5[8:1]/6-4[8:1],
6/2,{8}7/8,6,3/5,1/2,{4}8-4[8:1],
8x,{16}1/2h[8:1],,,3,{8}2h[8:1],4,{16}1/2h[8:1],,,4-8[8:1],
{8}2h[8:1],5,{4}4,{16}8/7h[8:1],,,6,{8}7h[8:1],5,
{16}8/7h[8:1],,,5-1[8:1],{8}7h[8:1],4,{4}5,{16}7/3h[8:1],,,6,
{8}6/3h[8:1],5,{16}6/3h[8:1],,,5,{8}3h[8:1]/5-1[8:1],4,{4}5,
{16}2/6h[8:1],,,3,{8}3/6h[8:1],4,{16}3/6h[8:1],,,4,{8}6h[8:1]/4-8[8:1],5,
{4}4x,{16}2h[8:1],7,,7,2h[8:1],6,,6,2h[8:1],5,,5,
2h[8:1],4-8[8:1],,4,{4}3,{16}7h[8:1],2,,2,7h[8:1],3,,3,
7h[8:1],4,,4,7h[8:1],5-1[8:1],,5,{4}6x,{16}2h[8:1],8,,8,
4h[8:1],6,,6,1h[8:1],7,,7,2h[8:1],6-2[16:1],,6,{4}2,
{6}1/3,6/8,5/4,3/A1/E2/D2,6/A8/E8/D8,D5/B5/A5/E5/B4/A4,
{16}8,7,6,5,
{8}4v1[8:1]/3,,5/4,6,7>1[8:1]*-4[8:1]/3,,7-3[8:1],,7x,4,5-2[8:1]*v8[8:1]/6,,5<7[8:1],,5,1,2/8v3[8:1],,7/8x,
{16}7,6,5h[8:7],,E3,E4,A4,,B1,C,B5,,A8,E8,E7,,1h[8:1],,
{12}4x,2,5,
{16}3h[8:1],,7h[8:1],,
{12}1,2,3,5,6,7,2,3,4,
{8}5xqq3[8:1]*<8[8:1],6/4,5,,1,8/2,7v4[8:1]*>2[8:1]/3,,7-5[8:1],,7x,3,1>3[8:1]*-5[8:1]/4,,1-6[8:1],,1,3,4V68[8:1],,4x/1,
{16}1,2,
{8}3h[8:6],1,2,4,5,6,7-1[8:1]*-3[8:1],,,,2h[8:4],3,4,5,6-2-4[4:1],7,8,,5x,
{16}3/6,7/2,
{8}8-4[8:1]/1,,8/2>5[8:1],1,2<7[8:1]*-6[8:1],,2,,5xpp5[4:1],3,1/5p1[8:1]*>2[8:1],,,,8,1,2/8qq4[4:1],,8x,
{16}1,2,
{8}3h[8:6],,D3,D2,D1,D8,D7,D6,6x/D5,D4,7h[8:6]/D3,D2,D1,D8,D7,5x,4x,3x,8v5[8:1]/2xV86[8:1],,8/2,,4,5,4-8[8:1]/6,3,4/2,1,7xv4[8:1]/2V46[8:1],,7/2,,3,2-4[8:1],4-1[8:1],1-5[8:1],6<4[4:1],,6x,,
{16}2xh[8:1],,,1h[8:1]/8h[8:1],,,7/8,,6h[8:1],,,4h[8:1]/5h[8:1],,,4/3,,1/2,,,,
7h[8:1],,,8h[8:1]/1h[8:1],,,2/1,,3h[8:1],,,5h[8:1]/4h[8:1],,,5/6,,6/5,4,3,2,
1h[8:1]/8h[8:1],,,7h[8:1]/5h[8:1],,,8/1,,3h[8:1]/4h[8:1],,,6h[8:1]/8h[8:1],,,4/3,,7/2,,,,
5h[8:1]/6h[8:1],,,4h[8:1]/2h[8:1],,,6/5,,1h[8:1]/3h[8:1],,,7h[8:1]/8h[8:1],,,1/3,,4h[8:1],,
{16}6,6,
4,3,2,4,5,6,4,3,5,6,7,5,4,3,5,6,7/B3/E4f/E3,,,,
8/1,7,6,8,1,2,8,7,1,2,3,1,8,7,1,2,3/E7f/B6/E6,,,,
3,4,5,1,2,3,8,8,6,5,4,8,7,6,1,1,A5/E5f/A4,,,,
2,1,2,8,
{64}2,E3,B3,B4,E5,,,,
{16}7,8,7,1,7,2,
{64}7,E7,B6,B5,E5,,,,
{16}2,1,
{12}3h,4h,5h,{4}6hx[8:5],
,{8},{16}8,7,8-4[8:1],,1,,{32}2/8,Cf,,,{8},
5>2[8:1]/6,4/7,5/6,{16}7,7,8>3[8:1],,1/6,,7/8,,,,4x<7[8:1],,5/2,,4/3,,2,2,1w5[8:1],,8/2,,1,,,,{8}3/7-3[8:1],8,7x/4>6[8:3],5,
4/6,5,4,4h[8:3],,5<8[8:1],2,{24}E3,B3,B4,E5f,,,{8},1/2,3/8,{24}7,5,7,5-1[8:1],,,{16}6,4,5,,{8}3,3,{16}4x/8x,3/7,2/6,5/1,
{4}4V61[4:1]/8V25[4:1],,{8},{16}7,8,7,,1,,{24}5x/1x,6/2,7/3,4/8,,,{4}4V28[4:1]/8V64[4:1],,{8},{16}2,1,2,,1/7,,{24}8x,1/7,2/6,3/5,,,
{4}2v4q8[8:3]/6v4p8[8:3],,,1v4[8:1]/7v4[8:1],1x/7x,{6}2/E6/A5/A6,A3/E4/A4/8,2h[12:1]/6h[12:1],A3/A7/B3/B7/Cf,{12},2,1,4,5V38[4:1],8,7h[12:4],,,,
{24}A8f,,,7,6,5,{16}4<7[8:1]/3>8[8:1],,5/2,,4/3,,,,
{8}5x-1[8:1],6/4,3,{24}2,3,4,{8}5>2[8:1]/6<1[8:1],7/4,5/6,,
7-4[8:1],8,7x/1-6[8:1],2,3-8[8:1],4,5h[8:3]/3,,7>4[4:1],,7,
{24}A5,A6,A7,{8}A8f,,4/6h[16:2],3,6/2h[8:1],7,2/8h[8:1],
{24}2,3,4,{16}5h[4:1],,2,1,8x<6v4<5[2:1]*>2v4<5[2:1],7,6,,{4},,{16},,
3,4,2,,1/5,,{24}1x>3v5>4[2:1]*<7v5>4[2:1]/5,2/6,3/7,{8}4/8,,,,,,
{16}6,5,7,,8/4,,{24}8x-4[8:1]/4,7/3,6/2,{8}5/1,
{4}8V64s8[4:3]*V24z8[4:3],,,,,
{16}6pp1[4:3],,B5,B4,B3,,,,E5,E4,E3,,,,A4,A3,A2,,,,
3qq8[4:3],,B4,B5,B6,,,,E5,E6,E7,,,,A5,A6,A7,,,,
6pp1[4:3]/5h[2:1],,,,,,,,,,4,,3-5[8:1],,2,,3,,,,
C/6,,,1,C,,3,,C/7,,,2,C,,4,,C/8,,,,C/3,,,8,C,,6,,C/2,,,7,C,,5,,C/1,,,,
6/4,,6/4,,7/3,,7/3,,2,8,2,8,1,1,1,1,A3/B3/Cf/B7/A7,,,,
8/4,,,6/5,
,,1/3,,7/8,,,5/3,,,{8}1b/2b,6b/7b,
E
