&title=小黑盒
&artist=Hikaritsu0927
&first=0
&des=CupLid
&des_5=
&lv_1=18+
&lv_5=1
&inote_1=(205){4},,,,{2}5/4h[2:1],
{8}6,5,4,3,
{2}2b<1<8<7<6>5>4>3[0.2927##2.8072],(220){4},7?qq1[1:1],
,,,,,,,(210)C,
,7>8>1>2>3<4<5<6b[0.2829##3.3134],,,(230),
7,7,5,
{2}3-1[4:1],7p2[4:1],
{4}3p6[4:1],,,(205),
{2}8h[2:1],{4}1,7/2,
(180){12}2,4,3,5,4,6,(170)3,5,4,6,5,7,
(160)4,6,3,(150)7,4,6,(130)2,(200)2,4,3,5,4,
6,(180)6,4,5,4,5,3,4,2,2,4,3,
5,4,7,7,4,5s1[0.33##3.9681],4,6,(125){3}5b,
,,5bs1[4:3]*s1[4:3],
,,5bs1b[24:17],
{24},,,,,,,,,,,,,,,{8}5bv6-8[2:1]*-3v2[2:1],,,,,,,(140)7b/3b,
{16}6,5,{8}6,7/4,
(150)5b/2b,{16}3,4,{8}3,5/2,(160)4b/7b,{16}6,5,{8}6,7/4,
(170)5b/2b,{16}3,4,{8}3,5/2,8b,8b/4,,8b/3,
8b/4,8b/5,,8b/4,(180){4}8b/3,8b/2,
8b/1,8b/1,(190){8}8b/7,8b/7,8b/1,8b/1,
8b/7,8b/7,8b/1,8b/1,(200){16}8b,8b,8b,8b,8b,8b,8b,8b,
8b,8b,8b,8b,8b,8b,8b,8b,(250){2}Ch[4:3],
{4},,(200),{16}5v6-8[2:7]/1v2-4b[2:7]*s5[2:7],D2f,{1},,,{4},,,{8},(90){4}Ch[4:3],
{8},,,,,(80),(244){4}6b/2b-6[8:1],
{8}8,8h[4:1],,6,4,2,{4}7-3[8:1],
{8}1,1h[4:1],,3,5,7,{4}8b/1b-5[8:1],
{8}7,7>2[8:1],,3h[4:1],,5,{4}6-1[8:1],
{8}3,2-6[8:1],,7h[4:1],,8,{4}1>4[8:1],
{8}5,6-2[8:1],,5,4,3h[4:1],,8,
{4}8,{8}7/1,7/1,,2h[4:1],,8,
6,4,{16}2/6,1,8,7,6,5,{8}1/4h[4:1],,8,
{4}8,{8}B2/E2,B6/E7,{16}B4/A4,,,B5/E6,{8}B3/E3,C,
D7/E7,D2/E2,E8/D8,E1/D1,B7,B8,B1,C,
(220){4}B4/A4,(244){16}7,5,7,5h[16:3],{4}7h[8:1],{16}2,4,2,4h[16:3],
{4}2h[8:1],{16}7,8,7,8h[16:3],{4}7h[8:1],{16}2,1,2,1h[16:3],
{4}2h[8:1],{8}1/8,{16}8/1,7,6,5,{8}4,{16}1/2,3,4,5,
{8}6,8h[4:1],{16},,1,7,1,7,1,7,1,2,3,4,
6,5,{8}4/3,,,(230)3h[8:3],,,4h[8:3],
,,{4}5h[8:5],{8},6h[4:1],,,,7h[4:3]/8h[8:3],
,,,,,,,6h[4:3]/7h[8:3],
,,,,,,,5h[8:3],
,,4h[8:3],,,3h[8:3],
{24},,,,,,,,,,,,,,,E2,E1,E8,E7,E6,E5,E4,E3,E2,
,,,{8}4h[4:1],,,4h[4:1],,,4,
4,5h[8:1]/3h[4:1],,5,{4}3h[8:1]/5h[4:1],{8}3,5/3,
,5h[4:1],,,5h[4:1],,,5,
5,4h[8:1]/6bh[4:1],,4,{4}6h[8:1]/4bh[4:1],{8}6,4/6b,
,5/4,{4}5/4v3[8:1],{2}5v6[8:1],
{4}7/2,(244)4/3h[8:3],{8},2-5[8:1],8-6[8:1],2-6[8:1],
8-4[8:1],2,{4}8,{8},3/5,,6,
5,4,5/3,5/3,,6/2,,8-6[8:1],
1-5[8:1],8-4[8:1],1-3[8:1],8-6[8:1],1-5[8:1],8-3[8:1],1-6[8:1],8<5[8:1],
1>4[8:1],8-4[8:1],1-5[8:1],8,{2}1w5[8:5],
{4},,,4h[4:3]/3-1-7-5<6<7>8>1>2>3[16:41],
,,,4h[4:3],
,,,4h[4:3],
,,,4h[4:3]/5<6<7>8>1>2>3[2:3],
,,,4h[4:3],
,,,4h[4:3]/5<6<7>8>1>2>3[2:3],
,,,4h[4:3],
,,,4h[2:1],
,3h[4:1],,4/2,
5/3,6/4,7/5,{8}8,8,
1,1,2h[16:1]/8h[16:1],2h[16:1]/8h[16:1],7h[16:1]/3h[16:1],7h[16:1]/3h[16:1],{16}E4,B4,B5,E6,
,,,,,,,,,,,,{4}Ch[2:1],
,,(290),(244){8}3b/8b,2>4[8:1],
1,2-6[8:1]/8-2[8:1],,2/8<5b[8:1],,4,{4}4,
6-8[8:1]/2v5[8:1],6/2,7/4,{8}6b/1b,7<5[8:1],
8,7-3[8:1]/1-7[8:1],,7/1>4b[8:1],,5,{4}5,
4-1[8:1]/8-5[8:1],4/8,6/2,{8}7-3[8:1],1<8-6>4[0.4869##0.241],
7,1h[4:1],,,,,2-6[8:1],8>1-3<6[8:3],
2,8,,8,,2,{16}1-5[8:1],1,1,1,
{4}1b,{8}7-3[8:1],3,{4}7b,1h[1:1],
,B5/E5/B4,,7,
{8}6/2,6-8[8:1]/2-8[8:1],,6-4[8:1]/2-4[8:1],,6/2,,1,
{4}1v6[8:1]*v4[8:1],1,{2}8/2,
{1},,,{16},,{24}2b/1bh[4:1],
3b,4b,5b,6b,,,,,7b/8bh[4:1],6b,5b,4b,3b,,,,,6bqq1[1:1]/2bqq5[1:1],7b/3b,8b/4b,
{1}5b/1b,
{4},(500),{12},,,,,,(244){6}8/4,
8/4,7/3,2h[4:1],{12},{4}7h[4:1],
{8}5,3,{4}1/5,{8}2,2,4,4,
3,3,8,8,{16}1,2,3,4,5,6,7,8,
1,2,3,4,5,6,7,8,{6}1h[12:1]/8h[12:1],1h[12:1]/2h[12:1],1h[12:1]/3h[12:1],
1h[12:1]/4h[12:1],1h[12:1]/5h[12:1],6h[12:1]/1h[12:1],8-5-2-7-4-1-6-3b[2:7]`1-6-3-8-5-2-7-4[2:7],{1},,,{4},,,{12},2,
5,3,4<8[4:1],,,,,,,,,7,
4,6,5>1[4:1],,,,,,,,,6,
1,7,8>4[4:1],,,,,,,,,3,
8,2,1<5[4:1],,,,,,,,,2,
5,3,4<8[4:1],,,,,,,,,7,
4,6,5>1[4:1],,,,,,,,,3,
5,{6}4-8[12:25],{12}5,3,
{6}4-8[3:5],{12}3,5,{6}4-8[4:5],{12}4-8[12:13],4-8[1:1],4-8[12:11],4-8[6:5],4-8[4:3],4-8[12:7],
4-8[2:1],4-8[12:5],4-8[48:19],4-8[16:5],4-8[48:11],4-8[12:1],{2}Cf,
{4},1<5v3[4:3],{2}4b,
,1h[1:1],
,2h[1:1],
,3h[1:1],
,4h[8:1],
6/2,{16}1,5,1,5,1,5,1,5,
1,5,1,5,{4}1,{16}2,6,2,6,1,7,1,7,
8,8,8,8,8,8,8,8,8,8,8,8,8,8,8,2-7b[16:3],
{1}6-3[8:1],
{4},E3/B3/Ch[4:3],{8},,1,1,
{4}1w5b[8:1],1b,{16}8/2,,,7,{8}5>2[8:1],5,
8-4[8:1],8,1,1,2,3,2/4,5,
5,6/4h[4:1],{16},,6,5,4,3,2,1,8/3,4,5,6,
7,8,{8}1h[4:1],,8,8,7/1,7/1,6/2,
{4}5/3,{8}7,{16}7,5,{8}6,6,2,{16}2,4,
{8}3,3,4/6,6,5/7,5,{4}8-4[8:1],
1,5b/3b,{16}2,6,2,6,2,6,2,6,
3,5,3,5,4,4,4,4,4,4,4,4,4,4,4,4,
4h,4h,4h,4h,4h,4h,4h,4h,4h,4h,4h,4h,4h,4h,4h,4h,
4h,4h,4h,4h,4h,4h,4h,4h,4h,4h,4h,4h,4h,4h,4h,4h,
4bh,4bh,4bh,4bh,4bh,4bh,4bh,4bh,4bh,4bh,4bh,4bh,4bh,4bh,4bh,4bh,
4bh,4bh,4bh,4bh,4bh,4bh,4bh,4bh,{2}4bw8b[5.1615##0.146]*w8b[5.1615##0.146]*w8b[5.1615##0.146]*w8b[5.1615##0.146]*w8b[5.1615##0.146]*w8b[5.1615##0.146]*w8b[5.1615##0.146]*w8b[5.1615##0.146]*w8b[5.1615##0.146]*w8b[5.1615##0.146]*w8b[5.1615##0.146]*w8b[5.1615##0.146]*w8b[5.1615##0.146]*w8b[5.1615##0.146]*w8b[5.1615##0.146]*w8b[5.1615##0.146]*w8b[5.1615##0.146]*w8b[5.1615##0.146]*w8b[5.1615##0.146]*w8b[5.1615##0.146]*w8b[5.1615##0.146]*w8b[5.1615##0.146]*w8b[5.1615##0.146]*w8b[5.1615##0.146]*w8b[5.1615##0.146]*w8b[5.1615##0.146]*w8b[5.1615##0.146]*w8b[5.1615##0.146]*w8b[5.1615##0.146]*w8b[5.1615##0.146]*w8b[5.1615##0.146]*w8b[5.1615##0.146]*w8b[5.1615##0.146]*w8b[5.1615##0.146]*w8b[5.1615##0.146]*w8b[5.1615##0.146]*w8b[5.1615##0.146]*w8b[5.1615##0.146]*w8b[5.1615##0.146]*w8b[5.1615##0.146]*w8b[5.1615##0.146]*w8b[5.1615##0.146]*w8b[5.1615##0.146]*w8b[5.1615##0.146]*w8b[5.1615##0.146]*w8b[5.1615##0.146]*w8b[5.1615##0.146]*w8b[5.1615##0.146]*w8b[5.1615##0.146]*w8b[5.1615##0.146]*w8b[5.1615##0.146]*w8b[5.1615##0.146]*w8b[5.1615##0.146]*w8b[5.1615##0.146]*w8b[5.1615##0.146]*w8b[5.1615##0.146]*w8b[5.1615##0.146]*w8b[5.1615##0.146]*w8b[5.1615##0.146]*w8b[5.1615##0.146]*w8b[5.1615##0.146]*w8b[5.1615##0.146]*w8b[5.1615##0.146]*w8b[5.1615##0.146]*w8b[5.1615##0.146]*w8b[5.1615##0.146]*w8b[5.1615##0.146]*w8b[5.1615##0.146]*w8b[5.1615##0.146]*w8b[5.1615##0.146]*w8b[5.1615##0.146]*w8b[5.1615##0.146]*w8b[5.1615##0.146]*w8b[5.1615##0.146]*w8b[5.1615##0.146]*w8b[5.1615##0.146]*w8b[5.1615##0.146]*w8b[5.1615##0.146]*w8b[5.1615##0.146]*w8b[5.1615##0.146]*w8b[5.1615##0.146]*w8b[5.1615##0.146]*w8b[5.1615##0.146]*w8b[5.1615##0.146]*w8b[5.1615##0.146]*w8b[5.1615##0.146]*w8b[5.1615##0.146]*w8b[5.1615##0.146]*w8b[5.1615##0.146]*w8b[5.1615##0.146]*w8b[5.1615##0.146]*w8b[5.1615##0.146]*w8b[5.1615##0.146]*w8b[5.1615##0.146]*w8b[5.1615##0.146]*w8b[5.1615##0.146]*w8b[5.1615##0.146]*w8b[5.1615##0.146]*w8b[5.1615##0.146]*w8b[5.1615##0.146],
,,,5b,
{4},,,,,,,,,,,(230),
{8},,(244)8/1,8/1,{4}7-4[8:1]/2-5[8:1],2b/7-1[8:1],
7/2-6[8:1],2/8-5[8:1],8/2-8[8:1],7-4[8:1]/2-4[8:1],
7/2,{8}1/2,3/8,{4}4/7-4[8:1],7/2-8[8:1],
2/7-3[8:1],7/1-4[8:1],1/7-1[8:1],2-5[8:1]/7-5[8:1],
2/7,{8}8/7,1/6,{4}5/2-5[8:1],2/7-1[8:1],
7/2-6[8:1],2/8-5[8:1],8/2-8[8:1],7-4[8:1]/2-4[8:1],
7/2,{8}1/2,3/8,{4}4/7-4[8:1],7/2-8[8:1],
2/7-3[8:1],7/1-4[8:1],1/7-1[8:1],2-5[8:1]/7-5[8:1],
2/7,{8}8/7,1/6,{4}5/2-5[8:1],2/7-1[8:1],
7/2-6[8:1],2/8-5[8:1],8/2-8[8:1],7-4[8:1]/2-4[8:1],
7/2,{8}1/2,8/3,{4}4/7-4[8:1],7/2-8[8:1],
2/7-3[8:1],7/1-4[8:1],1/7-1[8:1],2-5[8:1]/7-5[8:1],
2/7,{8}8/3,8-5b[8:1]/3-6b[8:1],,8b/3b,,,5/4,
{16}3,4,{8}2h[8:1],{16}8,1,{8}7h[8:1],{16}5,6,{8}4h[8:1],{16}6,5,
{8}7h[8:1],{16}1,8,{4}2,6-8[8:1]*-2[8:1],6,
{8},1bh[4:1],{16},,3,4,5,6,7,8,{4}1b/4b,
,,,6V48[1:1],
,2,,8V64[1:1],
,2,,4V62[1:1],
,3,,2V84[1:1],
,3,,4V68[1:1],
,2,,8z4[1:1],
,2,,4s8[1:1],
,2,,1,
,5/4,8b/3b,{8}2-5[8:1],8-2>4-6b[8:3],
2,8,,7w3[8:1],,7,,,{4}5<8[8:1]/1>4[8:1],
5/1-5[8:1],1,{8}7-4[8:1],1-7<5-3b[8:3],
7,1,,2w6[8:1],,2,,,{4}8/4,
5/3,4h[8:1]/2h[8:1],{16}1,5,1<3[4:1],5,
{8}1,{32},,,,,,,,A1,D1,A8,D8,A7,D7,{16}A6,,,1,5,1<3b[4:1],5,
{8}1,{32},,,,,,,,A1,D1,A8,D8,A7,D7,{16}A6,,,{4}2b-6[8:1],
2b/4b,7b-3[8:1],{2}7b/5b<4[2:1],
{4},5b,,3/8-4>2[8:3],
{8}2,2-6[4:1],,6<8[8:1],,1,,2,
{4}2-4[8:1]*-5[8:1],2-7[8:1]*-8[8:1],2,{32}2b/1bh[8:1],3,4,5,{8}6,
{32},,,,7b/8bh[8:1],6,5,4,{8}3,1,{2}6bqq1[1:1]/2bqq5[1:1],
{8},,,,,,,,,8/4,
{24},8/4,,,,7/3,,,,{8}2h[4:1],,7h[4:1],
,5,3,1/5,,2,2,4,
4,3,3,8,8,{16}1,2,3,4,5,6,
7,8,1,2,3,4,5,6,7,8,{8}1h[12:1]/6h[12:1],{24},1h[12:1]/5h[12:1],,,,1h[12:1]/4h[12:1],
,,,{8}1h[12:1]/3h[12:1],{24},1h[12:1]/2h[12:1],,,,8h[12:1]/1h[12:1],,,,{8}8-5-2-7-4-1-6-3b[2:7]`1-6-3-8-5-2-7-4[2:7],{1},,,{4},,,(320),
(244)6,
6/5,6/4,6/3,6/3,
5/3,4/3,3/4,{8}3,3,
4,4,{16}5,3,5,3,6,4,6,4,{4}8xh[2:1],
,Cfh[2:1],,7bpp4[2:1],
{8},,,2,{4}2bqq5[2:1],Cf,
{8},,,7,{4}7h[4:5],{16}5b,,,3b,
,,{8}6b,{16},2b,,,{4}8b,1h[4:1],
{8}6,2/5h[4:1],,2,{4}4/3,6h[8:1]/5h[8:1],
4h[8:1]/2h[8:1],5h[8:1]/7h[8:1],1h[8:1]/2h[8:1],{8}2/1,3,
4/8,7,6/3,2,6/1,5/2,{4}3/4w8b[0.9836##0.123],
{8},,,,,,,,,,8/1,
8/1,{4}2-5[8:1]/7-5[8:1],2b/7-1[8:1],
7/2-6[8:1],2/8-5[8:1],8/2-8[8:1],7-4[8:1]/2-4[8:1],
7/2,{8}1/2,8/3,{4}4/7-4[8:1],7/2-8[8:1],
2/7-3[8:1],7/1-4[8:1],1/7-1[8:1],2-5[8:1]/7-5[8:1],
2/7,{8}8/3,8-5b[8:1]/3-6b[8:1],,8b/3b,,,5/4,
{16}3,4,{8}2h[8:1],{16}8,1,{8}7h[8:1],{16}5,6,{8}4h[8:1],{16}6,5,
{8}7h[8:1],{16}1,8,{4}2,6-8[8:1]*-2[8:1],6,
{8},1bh[4:1],{16},,3,4,5,6,7,8,{4}1b/4b,
,,6-4[8:1],6b/2b-6b[8:1],
2-4[8:1]/8-4[8:1],8/2-8[8:1],2/7-4b[8:1],7/1-5[8:1]*-6[8:1],
1,{8}8/7,8/7,{4}6/1v3[8:1],1v7[8:1],
1-5b[8:1],A1,{16}8,7,6,5,{4}4b/8b-4b[8:1]*-3b[8:1],
8b,{8}5/2,6<1[8:1]/1v4[8:1],,6b/1b,,,{4}3h[8:1]/8h[8:1],
7h[8:1]/4h[8:1],6h[8:1]/5h[8:1],{8}5/4,4/3,
3/2,2/1,{4}8/1,{16}1,8,1,8,2,1,3,8,
4,7,5,6,4,5,3,4,3,4,,,{8}6b/1b,6b/1b,
{2}6b<1[8:1]/1b>4[8:1],{4}8b/3b,{8}2-5[8:1],8-2>4-6b[8:3],
2,8,,7w3[8:1],,7,,,{4}5<8[8:1]/1>4[8:1],
5/1-5[8:1],1,{8}7-4[8:1],1-7<5-3b[8:3],
7,1,,2w6[8:1],,2,,,{4}8/4,
5/3,4h[8:1]/2h[8:1],{16}1,5,1<3[4:1],5,
{8}1,{32},,,,,,,,A1,D1,A8,D8,A7,D7,{16}A6,,,1,5,1<3b[4:1],5,
{8}1,{32},,,,,,,,A1,D1,A8,D8,A7,D7,{16}A6,,,{4}2b-6[8:1],
2b/4b,7b-3[8:1],{2}7b/5b<4[2:1],
{4},5b,,3/8-4>2[8:3],
{8}2,2-6[4:1],,6<8[8:1],,1,,2,
{4}2-4[8:1]*-5[8:1],2-7[8:1]*-8[8:1],2,6/5,
{8}7/8,6/1,,3/4,,8b/4bh[8:33],,8,
7,6,5,3,2,1,{16}8,7,6,5,
,3,2,1,8,7,6,5,,3,2,1,8,1,2,3,
,5,6,7,8,1,2,3,,5,6,7,{8}8,1,
2,3,5,6,7,8,{4}1b,
,,,,(90),
{32}5,5h[32:3],{64}7,8,1,2,{16}3,{32}8,8h[32:3],{64}6,5,4,3,{16}2,{32}1/5,6,7,8,1/6,7,8,1,2/7,8,1,2z6>6>4-8b[32:17],
{8}7bh[32:3]/3bh[32:3],{64}8x/4x,5/1,6/2,7/3,,,,,{4}Cf,{8},,,(210),
,,,,(200){2}2>3<4<5<6<7>8>1[4:7],
,,,6>5>4>3>2<1<8<7b[4:7],
{8},,,,,,,,,,,,1h[8:3],
,,8,
,7/2,{12},2,2,4,3,5,4,6,6,
4,5,4,5,3,4,2,2,4,(180)3,5,4,
7,7,4,5,4,6,5,6,3,7,4,6,
5s1[0.3333##1.92],6,4,(125)5b,,,,,,,,,,,,(90){4}Ch[4:3],
{8},,,,,,(205)7b/2b-4[8:1],
6,5-1[8:1],5,2,2h[8:1],
{16}8,7,{8}6,3-5[8:1],3,6-2[8:1],6,3,3h[8:1],
{16}1,8,{8}7,3-7[8:1],3,5>3[8:1],5,2,2,
{16}1,8,{8}1,7/2h[8:1],{16}E7,B6,{8}B5,E3/B3,E8/B7,B4/E5,
{4}B6/E6,{8}8-2[8:1],8,3-7[8:1],3,6-4[8:1],6,
{16}8,1,{8}2,6>3[8:1],6,2-6[8:1],2,8,8,
{16}7,5,{8}6,{16}3,4,{8}2,{16}6,5,{8}7,{16}3,4,{8}1,
{16}6,5,{8}8h[4:1],{16},,1,2,{8}3,E7/B7,E3/B3,B5/E5,
{4}1qq2[4:3],Cf,{8},,,5,
{4}5qq6[4:3],Cf,{8},,,2,
{4}2,{16}1b-4[16:1],,,5b-8[16:1],,,{8}3b-6[16:1],{16},7b-2[16:1],,,{8}4b,
4,{4}8h[4:1],{8},7h[4:1]/1h[4:1],,,{4}6/2,
1/5h[8:1],{16}1/5h[8:1],2,{8}3,{4}6h[8:1],
{16}2/6h[8:1],3,{8}4,{4}7h[8:1],{16}3/7h[8:1],4,{8}5,{4}8h[8:1],
{16}4/8h[8:1],5,{8}6,8,8,8,8,{16}7,1,7,1,
6,2,5,3,{4}4b/Cf,{12},,,,,,,,,(200)2,
2,4,3,5,4,6,6,4,
5,3,4,(180)2,2,4,3,5,4,7,7,4,
5-8[0.3333##0.1389],4,6,(108)5bp1[8:3]*q8[8:5],,,,,,,,,,,,(266){4}8b/2b-5[8:1],
7<4[8:1],{16}4,3,2,1,
8,7,6,5,{4}4/7b-4[8:1],2>5[8:1],{16}5,6,7,8,
1,2,3,4,{4}5h[8:1],{8}2/5h[16:1],5h[16:1],5h[16:1],{16}1,2,
3,4,1,8,{4}7h[4:1],{8}8,7h[16:1]/1h[16:1],6h[16:1]/2h[16:1],5h[16:1]/3h[16:1],
,5/3,{4}5/3,6b/2b-6[8:1],{8}8,8h[4:1],
{16},,6h,5$,4,3$,2h,1$,{4}8/7-3[8:1],{8}1,1h[4:1],
{16},,3,4,5,6,7,8,{4}1/2h[4:1],{16}8,7,6,5,
4,3,2,1,8h`4$,7$/3h,2$`6$,5$/1h,{4}8/4h[4:1],{8}1,1q6[4:1]*-3-6[4:1],
1,{16},,,,,,,,7,5,{8}7,4$,
3,{16}2$,4,{8}2,5$,6,{16}7,8,7$,8,{8}6,
6$,{16}2,1,2$,1,3,8$,3$,8,{8}2b,{4}2b,
{16}2$,4$,2$,4$,{8}2$,{16}7$,5$,7$,5$,{8}7$,,8/4h[4:1],
{16},,A8,E8,E7,A6,A1,B1,C,B5,A2,E3,E4,A4,{8}6h[8:3],
,,7b-4[8:1],1-3[8:1],7,1,,5/2,
{16},,7,5,{8}6,6/5,7/4,7h[4:1]/4>1[8:1],,4b,
,8-6[8:1],8-2[8:1],8-5[8:1],8-3[8:1],8,{4}8,
{8},8-6[8:1],8-2[8:1],8-5[8:1],8-3[8:1],8,{4}8,
{8},8-6[8:1],8-2[8:1],8-5[8:1],8-3[8:1],8,{4}8,
{16},8-6[8:1],,8-2[8:1],,8-5[8:1],,8-3[8:1],,8,,8,,,,,{8}8-6[8:1],
8-2[8:1],8-5[8:1],8-3[8:1],{2}8-4-8-4-8-4-8-4-8-4-8-4-8[1:1],
,8?w4[2:1],
{4},,7/2,1-7b[8:1],
6-2b[8:1],5h[8:1],{16}5/1,4/8,3/7,2/6,{4}1/5-1b[8:1],
3-7b[8:1],4h[8:1],{16}8/4,1/5,2/6,3/7,{4}4/8-4b[8:1],
4,{8}6/2,6/2,{4}7/1,{24}8b/7b,6/1,5/2,4h[8:1]/3h[8:1],,,,,,1b/2b,
3/8,4/7,{4}5h[8:1]/6h[8:1],4/7,8b/1b,
{16}1b,2,3,4,7,8,1,2,5,6,7,8,3,4,5,6,
1,2,3,4,{4}8,6/2,{16}3bh[32:1],5h[32:1],3h[32:1],5h[32:1],
4h[32:1],6h[32:1],4h[32:1],6h[32:1],3h[32:1],7h[32:1],3h[32:1],7h[32:1],2h[32:1],8h[32:1],2h[32:1],8h[32:1],{4}E3/B3f/E4,
{8},,7,8,{4}1,{8}2b/4b,5,
5,4b/6b,3,3,4b/2b,1,1,6b/8b,
7,7,{4}8b/1b,6b/3b,{16}1/7bh,2,3/7h,4,
5,6,7,8/5bh,1,2/5,3,4,5,6/3bh,7,8/3,1,2,{8}3,
4/8bh,8h/4h[4:1],{32}D7,E6/D6,E5/D5,E4/D4,E3/D3,E2/D2,D1/E1,D8/E8,E7/A6,E6/A5,E5/A4,E4/A3,E3/A2,E2/A1,E1/A8,E8/A7,Cf/E7/A6,E6/A5,{4},{16},{64},{192},{48}4b/6b,
,,,,,3,,,,,,3,,,,,,4b/2b,,,,,,1,,,,,,1,,,,,,6b/8b,,,,,,7,
,,,,,7,,,,,,8b/1b,,,,,,,,,,,,6b/3b,,,,,,,,,,,,1/7bh,,,2,,,3/7h,,,{24}4,
{48},5,,,6,,,7,,,{24}8/5bh,{48},1,,,2/5,,,3,,,{24}4,{48},5,,,6/3bh,,,7,,,{24}8/3,{48},1,,,2,,,3,,,,,,4/8bh,
,,,,,8h/4h[4:1],,,,,,D7,{96},E6/D6,,,E5/D5,,,E4/D4,,,{48}E3/D3,{96},E2/D2,,,D1/E1,,,D8/E8,,,{48}E7/A6,{96},E6/A5,,,E5/A4,,,E4/A3,,,{48}E3/A2,{96},E2/A1,,,E1/A8,,,E8/A7,,,{48}Cf/E7/A6,{96},E6/A5,{4},{16},{64},,{96},{24}4b/6b,
,,3,,,{12}3,{24},4b/2b,,,1,,,1,,,{12}6b/8b,
{24},7,,,7,,,8b/1b,,,,,,6b/3b,,,,,,1/7bh,{48},2,,,3/7h,,,4,
,,{24}5,{48},6,,,7,,,8/5bh,,,{24}1,{48},2/5,,,3,,,4,,,{24}5,{48},6/3bh,,,7,,,8/3,,,{24}1,{48},2,,,{12}3,
{24},4/8bh,,,8h/4h[4:1],{96},,,,,,,,D7,,,E6/D6,,,{48}E5/D5,{96},E4/D4,,,E3/D3,,,E2/D2,,,{48}D1/E1,{96},D8/E8,,,E7/A6,,,E6/A5,,,{48}E5/A4,{96},E4/A3,,,E3/A2,,,E2/A1,,,{48}E1/A8,{96},E8/A7,,,Cf/E7/A6,,,E6/A5,{4},{16},{64},,{96},{16}4b/6b,
,3,,3,,4b/2b,,1,,1,,6b/8b,
,7,,7,,8b/1b,,,,6b/3b,,,,1/7bh,2,3/7h,
4,5,6,7,8/5bh,1,2/5,3,4,5,6/3bh,7,8/3,1,2,3,
,4/8bh,,8h/4h[4:1],{32},,D7,E6/D6,E5/D5,E4/D4,E3/D3,E2/D2,D1/E1,D8/E8,E7/A6,E6/A5,E5/A4,E2/A1/E4/A3,E1/A8/E3/A2,E8/A7,Cf/E7/A6,E6/A5,{4},{16},,{64},{192},{24}4b/6b,
,,3,,,3,,,{12}4b/2b,{24},1,,,1,,,6b/8b,
,,{12}7,{24},7,,,{12}8b/1b,,,6b/3b,{48},,,,,,,,1/7bh,,,2,,,{24}3/7h,
{48},4,,,5,,,6,,,{24}7,{48},8/5bh,,,1,,,2/5,,,{24}3,{48},4,,,5,,,6/3bh,,,{24}7,{48},8/3,,,1,,,2,,,{24}3,
,,{12}4/8bh,{24},8h/4h[4:1],{96},,,,,,,,D7,,,E6/D6,,,{48}E5/D5,{96},E4/D4,,,E3/D3,,,E2/D2,,,{48}D1/E1,{96},D8/E8,,,E7/A6,,,E6/A5,,,{48}E5/A4,{96},E4/A3,,,E3/A2,,,E2/A1,,,{48}E1/A8,{96},E8/A7,,,Cf/E7/A6,,,E6/A5,,,,,,,,,,,,,(500){4},
(244),{6}8h[12:1]/7h[12:1],8h[12:1]/7h[12:1],8h[12:1]/7h[12:1],
6h[12:1]/1h[12:1],5h[12:1]/2h[12:1],4h[12:1]/3h[12:1],3h[12:1]/2h[12:1],2h[12:1]/1h[12:1],8h[12:1]/1h[12:1],
8h[12:1]/7h[12:1],7h[12:1]/6h[12:1],6h[12:1]/5h[12:1],4h[12:1]/5h[12:1],4h[12:1]/3h[12:1],3h[12:1]/2h[12:1],
2h[12:1]/1h[12:1],8h[12:1]/1h[12:1],8h[12:1]/7h[12:1],7h[12:1]/6h[12:1],6h[12:1]/5h[12:1],4h[12:1]/5h[12:1],
4h[12:1]/3h[12:1],3h[12:1]/2h[12:1],2h[12:1]/1h[12:1],8h[12:1]/1h[12:1],8h[12:1]/7h[12:1],7h[12:1]/6h[12:1],
6h[12:1]/5h[12:1],4h[12:1]/5h[12:1],4h[12:1]/3h[12:1],3h[12:1]/2h[12:1],2h[12:1]/1h[12:1],8h[12:1]/1h[12:1],
8h[12:1]/7h[12:1],7h[12:1]/6h[12:1],6h[12:1]/5h[12:1],4h[12:1]/5h[12:1],4h[12:1]/3h[12:1],3h[12:1]/2h[12:1],
2h[12:1]/1h[12:1],8h[12:1]/1h[12:1],8h[12:1]/7h[12:1],7h[12:1]/6h[12:1],6h[12:1]/5h[12:1],4h[12:1]/5h[12:1],
4h[12:1]/3h[12:1],3h[12:1]/2h[12:1],2h[12:1]/1h[12:1],8h[12:1]/1h[12:1],8h[12:1]/7h[12:1],7h[12:1]/6h[12:1],
6h[12:1]/5h[12:1],4h[12:1]/5h[12:1],4h[12:1]/3h[12:1],3h[12:1]/2h[12:1],2h[12:1]/1h[12:1],8h[12:1]/1h[12:1],
8h[12:1]/7h[12:1],7h[12:1]/6h[12:1],6h[12:1]/5h[12:1],4h[12:1]/5h[12:1],4h[12:1]/3h[12:1],3h[12:1]/2h[12:1],
2h[12:1]/1h[12:1],8h[12:1]/1h[12:1],1h[12:1]/2h[12:1],2h[12:1]/3h[12:1],{12}3h[#0.08197021]/4h[#0.08197021],(205),{24},{8}5xh[8:7],
,,,,,,{4}4h[1:1],
,,,8h[16:71],
,,,,,,,,,,,,,,,,1h[16:3],
B7/E7/B6/A6/D7/A7/B2/B3/E3/A2/A3/D3/C,{1},,,,,,,,,,,,,,,,,{4},,,7?-2b[0.2927##0.1875]`3?-6[0.2927##0.1875],
(160){2},
{4},1?q4-2-4-8-4p1-3-1-5-7[2:3]/8?p5-7-5-1-5q8-6-8-4-2[2:3],{16}Cf,Cf,Cf,Cf,{8}Cf,Cf,
{16}Cf,Cf,Cf,Cf,{8}Cf,Cf,{16}Cf,Cf,Cf,Cf,{8}Cf,Cf,
{48}Cf/A1/D2/D3/A2/E3/A3/D4/B2/B3/E4/E5/B4/A4/D5/D1/D6/D7/E7/A7/B8/B6/D8/E8/A5/A8/B5/B1/E6/B7/E1/A6/E2,Cf/A1/D2/D3/A2/E3/A3/D4/B2/B3/E4/E5/B4/A4/D5/D1/D6/D7/E7/A7/B8/B6/D8/E8/A5/A8/B5/B1/E6/B7/E1/A6/E2,Cf/A1/D2/D3/A2/E3/A3/D4/B2/B3/E4/E5/B4/A4/D5/D1/D6/D7/E7/A7/B8/B6/D8/E8/A5/A8/B5/B1/E6/B7/E1/A6/E2,Cf/A1/D2/D3/A2/E3/A3/D4/B2/B3/E4/E5/B4/A4/D5/D1/D6/D7/E7/A7/B8/B6/D8/E8/A5/A8/B5/B1/E6/B7/E1/A6/E2,Cf/A1/D2/D3/A2/E3/A3/D4/B2/B3/E4/E5/B4/A4/D5/D1/D6/D7/E7/A7/B8/B6/D8/E8/A5/A8/B5/B1/E6/B7/E1/A6/E2,Cf/A1/D2/D3/A2/E3/A3/D4/B2/B3/E4/E5/B4/A4/D5/D1/D6/D7/E7/A7/B8/B6/D8/E8/A5/A8/B5/B1/E6/B7/E1/A6/E2,Cf/A1/D2/D3/A2/E3/A3/D4/B2/B3/E4/E5/B4/A4/D5/D1/D6/D7/E7/A7/B8/B6/D8/E8/A5/A8/B5/B1/E6/B7/E1/A6/E2,Cf/A1/D2/D3/A2/E3/A3/D4/B2/B3/E4/E5/B4/A4/D5/D1/D6/D7/E7/A7/B8/B6/D8/E8/A5/A8/B5/B1/E6/B7/E1/A6/E2,Cf/A1/D2/D3/A2/E3/A3/D4/B2/B3/E4/E5/B4/A4/D5/D1/D6/D7/E7/A7/B8/B6/D8/E8/A5/A8/B5/B1/E6/B7/E1/A6/E2,Cf/A1/D2/D3/A2/E3/A3/D4/B2/B3/E4/E5/B4/A4/D5/D1/D6/D7/E7/A7/B8/B6/D8/E8/A5/A8/B5/B1/E6/B7/E1/A6/E2,Cf/A1/D2/D3/A2/E3/A3/D4/B2/B3/E4/E5/B4/A4/D5/D1/D6/D7/E7/A7/B8/B6/D8/E8/A5/A8/B5/B1/E6/B7/E1/A6/E2,Cf/A1/D2/D3/A2/E3/A3/D4/B2/B3/E4/E5/B4/A4/D5/D1/D6/D7/E7/A7/B8/B6/D8/E8/A5/A8/B5/B1/E6/B7/E1/A6/E2,Cf/A1/D2/D3/A2/E3/A3/D4/B2/B3/E4/E5/B4/A4/D5/D1/D6/D7/E7/A7/B8/B6/D8/E8/A5/A8/B5/B1/E6/B7/E1/A6/E2,Cf/A1/D2/D3/A2/E3/A3/D4/B2/B3/E4/E5/B4/A4/D5/D1/D6/D7/E7/A7/B8/B6/D8/E8/A5/A8/B5/B1/E6/B7/E1/A6/E2,Cf/A1/D2/D3/A2/E3/A3/D4/B2/B3/E4/E5/B4/A4/D5/D1/D6/D7/E7/A7/B8/B6/D8/E8/A5/A8/B5/B1/E6/B7/E1/A6/E2,Cf/A1/D2/D3/A2/E3/A3/D4/B2/B3/E4/E5/B4/A4/D5/D1/D6/D7/E7/A7/B8/B6/D8/E8/A5/A8/B5/B1/E6/B7/E1/A6/E2,
E
&inote_5=(205){4},,,,{2}5/4h[2:1],
{8}6,5,4,3,
{2}2b<1<8<7<6>5>4>3[0.2927##2.8072],(220){4},7?qq1[1:1],
,,,,,,,(210)C,
,7>8>1>2>3<4<5<6b[0.2829##3.3134],,,(230),
7,7,5,
{2}3-1[4:1],7p2[4:1],
{4}3p6[4:1],,,(205),
{2}8h[2:1],{4}1,7/2,
(180){12}2,4,3,5,4,6,(170)3,5,4,6,5,7,
(160)4,6,3,(150)7,4,6,(130)2,(200)2,4,3,5,4,
6,(180)6,4,5,4,5,3,4,2,2,4,3,
5,4,7,7,4,5s1[0.33##3.9681],4,6,(125){3}5b,
,,5bs1[4:3]*s1[4:3],
,,5bs1b[24:17],
{24},,,,,,,,,,,,,,,{8}5bv6-8[2:1]*-3v2[2:1],,,,,,,(140)7b/3b,
{16}6,5,{8}6,7/4,
(150)5b/2b,{16}3,4,{8}3,5/2,(160)4b/7b,{16}6,5,{8}6,7/4,
(170)5b/2b,{16}3,4,{8}3,5/2,8b,8b/4,,8b/3,
8b/4,8b/5,,8b/4,(180){4}8b/3,8b/2,
8b/1,8b/1,(190){8}8b/7,8b/7,8b/1,8b/1,
8b/7,8b/7,8b/1,8b/1,(200){16}8b,8b,8b,8b,8b,8b,8b,8b,
8b,8b,8b,8b,8b,8b,8b,8b,(250){2}Ch[4:3],
{4},,(200),{16}5v6-8[2:7]/1v2-4b[2:7]*s5[2:7],D2f,{1},,,{4},,,{8},(90){4}Ch[4:3],
{8},,,,,(80),(244){4}6b/2b-6[8:1],
{8}8,8h[4:1],,6,4,2,{4}7-3[8:1],
{8}1,1h[4:1],,3,5,7,{4}8b/1b-5[8:1],
{8}7,7>2[8:1],,3h[4:1],,5,{4}6-1[8:1],
{8}3,2-6[8:1],,7h[4:1],,8,{4}1>4[8:1],
{8}5,6-2[8:1],,5,4,3h[4:1],,8,
{4}8,{8}7/1,7/1,,2h[4:1],,8,
6,4,{16}2/6,1,8,7,6,5,{8}1/4h[4:1],,8,
{4}8,{8}B2/E2,B6/E7,{16}B4/A4,,,B5/E6,{8}B3/E3,C,
D7/E7,D2/E2,E8/D8,E1/D1,B7,B8,B1,C,
(220){4}B4/A4,(244){16}7,5,7,5h[16:3],{4}7h[8:1],{16}2,4,2,4h[16:3],
{4}2h[8:1],{16}7,8,7,8h[16:3],{4}7h[8:1],{16}2,1,2,1h[16:3],
{4}2h[8:1],{8}1/8,{16}8/1,7,6,5,{8}4,{16}1/2,3,4,5,
{8}6,8h[4:1],{16},,1,7,1,7,1,7,1,2,3,4,
6,5,{8}4/3,,,(230)3h[8:3],,,4h[8:3],
,,{4}5h[8:5],{8},6h[4:1],,,,7h[4:3]/8h[8:3],
,,,,,,,6h[4:3]/7h[8:3],
,,,,,,,5h[8:3],
,,4h[8:3],,,3h[8:3],
{24},,,,,,,,,,,,,,,E2,E1,E8,E7,E6,E5,E4,E3,E2,
,,,{8}4h[4:1],,,4h[4:1],,,4,
4,5h[8:1]/3h[4:1],,5,{4}3h[8:1]/5h[4:1],{8}3,5/3,
,5h[4:1],,,5h[4:1],,,5,
5,4h[8:1]/6bh[4:1],,4,{4}6h[8:1]/4bh[4:1],{8}6,4/6b,
,5/4,{4}5/4v3[8:1],{2}5v6[8:1],
{4}7/2,(244)4/3h[8:3],{8},2-5[8:1],8-6[8:1],2-6[8:1],
8-4[8:1],2,{4}8,{8},3/5,,6,
5,4,5/3,5/3,,6/2,,8-6[8:1],
1-5[8:1],8-4[8:1],1-3[8:1],8-6[8:1],1-5[8:1],8-3[8:1],1-6[8:1],8<5[8:1],
1>4[8:1],8-4[8:1],1-5[8:1],8,{2}1w5[8:5],
{4},,,4h[4:3]/3-1-7-5<6<7>8>1>2>3[16:41],
,,,4h[4:3],
,,,4h[4:3],
,,,4h[4:3]/5<6<7>8>1>2>3[2:3],
,,,4h[4:3],
,,,4h[4:3]/5<6<7>8>1>2>3[2:3],
,,,4h[4:3],
,,,4h[2:1],
,3h[4:1],,4/2,
5/3,6/4,7/5,{8}8,8,
1,1,2h[16:1]/8h[16:1],2h[16:1]/8h[16:1],7h[16:1]/3h[16:1],7h[16:1]/3h[16:1],{16}E4,B4,B5,E6,
,,,,,,,,,,,,{4}Ch[2:1],
,,(290),(244){8}3b/8b,2>4[8:1],
1,2-6[8:1]/8-2[8:1],,2/8<5b[8:1],,4,{4}4,
6-8[8:1]/2v5[8:1],6/2,7/4,{8}6b/1b,7<5[8:1],
8,7-3[8:1]/1-7[8:1],,7/1>4b[8:1],,5,{4}5,
4-1[8:1]/8-5[8:1],4/8,6/2,{8}7-3[8:1],1<8-6>4[0.4869##0.241],
7,1h[4:1],,,,,2-6[8:1],8>1-3<6[8:3],
2,8,,8,,2,{16}1-5[8:1],1,1,1,
{4}1b,{8}7-3[8:1],3,{4}7b,1h[1:1],
,B5/E5/B4,,7,
{8}6/2,6-8[8:1]/2-8[8:1],,6-4[8:1]/2-4[8:1],,6/2,,1,
{4}1v6[8:1]*v4[8:1],1,{2}8/2,
{1},,,{16},,{24}2b/1bh[4:1],
3b,4b,5b,6b,,,,,7b/8bh[4:1],6b,5b,4b,3b,,,,,6bqq1[1:1]/2bqq5[1:1],7b/3b,8b/4b,
{1}5b/1b,
{4},(500),{12},,,,,,(244){6}8/4,
8/4,7/3,2h[4:1],{12},{4}7h[4:1],
{8}5,3,{4}1/5,{8}2,2,4,4,
3,3,8,8,{16}1,2,3,4,5,6,7,8,
1,2,3,4,5,6,7,8,{6}1h[12:1]/8h[12:1],1h[12:1]/2h[12:1],1h[12:1]/3h[12:1],
1h[12:1]/4h[12:1],1h[12:1]/5h[12:1],6h[12:1]/1h[12:1],8-5-2-7-4-1-6-3b[2:7]`1-6-3-8-5-2-7-4[2:7],{1},,,{4},,,{12},2,
5,3,4<8[4:1],,,,,,,,,7,
4,6,5>1[4:1],,,,,,,,,6,
1,7,8>4[4:1],,,,,,,,,3,
8,2,1<5[4:1],,,,,,,,,2,
5,3,4<8[4:1],,,,,,,,,7,
4,6,5>1[4:1],,,,,,,,,3,
5,{6}4-8[12:25],{12}5,3,
{6}4-8[3:5],{12}3,5,{6}4-8[4:5],{12}4-8[12:13],4-8[1:1],4-8[12:11],4-8[6:5],4-8[4:3],4-8[12:7],
4-8[2:1],4-8[12:5],4-8[48:19],4-8[16:5],4-8[48:11],4-8[12:1],{2}Cf,
{4},1<5v3[4:3],{2}4b,
,1h[1:1],
,2h[1:1],
,3h[1:1],
,4h[8:1],
6/2,{16}1,5,1,5,1,5,1,5,
1,5,1,5,{4}1,{16}2,6,2,6,1,7,1,7,
8,8,8,8,8,8,8,8,8,8,8,8,8,8,8,2-7b[16:3],
{1}6-3[8:1],
{4},E3/B3/Ch[4:3],{8},,1,1,
{4}1w5b[8:1],1b,{16}8/2,,,7,{8}5>2[8:1],5,
8-4[8:1],8,1,1,2,3,2/4,5,
5,6/4h[4:1],{16},,6,5,4,3,2,1,8/3,4,5,6,
7,8,{8}1h[4:1],,8,8,7/1,7/1,6/2,
{4}5/3,{8}7,{16}7,5,{8}6,6,2,{16}2,4,
{8}3,3,4/6,6,5/7,5,{4}8-4[8:1],
1,5b/3b,{16}2,6,2,6,2,6,2,6,
3,5,3,5,4,4,4,4,4,4,4,4,4,4,4,4,
4h,4h,4h,4h,4h,4h,4h,4h,4h,4h,4h,4h,4h,4h,4h,4h,
4h,4h,4h,4h,4h,4h,4h,4h,4h,4h,4h,4h,4h,4h,4h,4h,
4bh,4bh,4bh,4bh,4bh,4bh,4bh,4bh,4bh,4bh,4bh,4bh,4bh,4bh,4bh,4bh,
4bh,4bh,4bh,4bh,4bh,4bh,4bh,4bh,{2}4bw8b[5.1615##0.146]*w8b[5.1615##0.146]*w8b[5.1615##0.146]*w8b[5.1615##0.146]*w8b[5.1615##0.146]*w8b[5.1615##0.146]*w8b[5.1615##0.146]*w8b[5.1615##0.146]*w8b[5.1615##0.146]*w8b[5.1615##0.146]*w8b[5.1615##0.146]*w8b[5.1615##0.146]*w8b[5.1615##0.146]*w8b[5.1615##0.146]*w8b[5.1615##0.146]*w8b[5.1615##0.146]*w8b[5.1615##0.146]*w8b[5.1615##0.146]*w8b[5.1615##0.146]*w8b[5.1615##0.146]*w8b[5.1615##0.146]*w8b[5.1615##0.146]*w8b[5.1615##0.146]*w8b[5.1615##0.146]*w8b[5.1615##0.146]*w8b[5.1615##0.146]*w8b[5.1615##0.146]*w8b[5.1615##0.146]*w8b[5.1615##0.146]*w8b[5.1615##0.146]*w8b[5.1615##0.146]*w8b[5.1615##0.146]*w8b[5.1615##0.146]*w8b[5.1615##0.146]*w8b[5.1615##0.146]*w8b[5.1615##0.146]*w8b[5.1615##0.146]*w8b[5.1615##0.146]*w8b[5.1615##0.146]*w8b[5.1615##0.146]*w8b[5.1615##0.146]*w8b[5.1615##0.146]*w8b[5.1615##0.146]*w8b[5.1615##0.146]*w8b[5.1615##0.146]*w8b[5.1615##0.146]*w8b[5.1615##0.146]*w8b[5.1615##0.146]*w8b[5.1615##0.146]*w8b[5.1615##0.146]*w8b[5.1615##0.146]*w8b[5.1615##0.146]*w8b[5.1615##0.146]*w8b[5.1615##0.146]*w8b[5.1615##0.146]*w8b[5.1615##0.146]*w8b[5.1615##0.146]*w8b[5.1615##0.146]*w8b[5.1615##0.146]*w8b[5.1615##0.146]*w8b[5.1615##0.146]*w8b[5.1615##0.146]*w8b[5.1615##0.146]*w8b[5.1615##0.146]*w8b[5.1615##0.146]*w8b[5.1615##0.146]*w8b[5.1615##0.146]*w8b[5.1615##0.146]*w8b[5.1615##0.146]*w8b[5.1615##0.146]*w8b[5.1615##0.146]*w8b[5.1615##0.146]*w8b[5.1615##0.146]*w8b[5.1615##0.146]*w8b[5.1615##0.146]*w8b[5.1615##0.146]*w8b[5.1615##0.146]*w8b[5.1615##0.146]*w8b[5.1615##0.146]*w8b[5.1615##0.146]*w8b[5.1615##0.146]*w8b[5.1615##0.146]*w8b[5.1615##0.146]*w8b[5.1615##0.146]*w8b[5.1615##0.146]*w8b[5.1615##0.146]*w8b[5.1615##0.146]*w8b[5.1615##0.146]*w8b[5.1615##0.146]*w8b[5.1615##0.146]*w8b[5.1615##0.146]*w8b[5.1615##0.146]*w8b[5.1615##0.146]*w8b[5.1615##0.146]*w8b[5.1615##0.146]*w8b[5.1615##0.146]*w8b[5.1615##0.146]*w8b[5.1615##0.146]*w8b[5.1615##0.146]*w8b[5.1615##0.146],
,,,5b,
{4},,,,,,,,,,,(230),
{8},,(244)8/1,8/1,{4}7-4[8:1]/2-5[8:1],2b/7-1[8:1],
7/2-6[8:1],2/8-5[8:1],8/2-8[8:1],7-4[8:1]/2-4[8:1],
7/2,{8}1/2,3/8,{4}4/7-4[8:1],7/2-8[8:1],
2/7-3[8:1],7/1-4[8:1],1/7-1[8:1],2-5[8:1]/7-5[8:1],
2/7,{8}8/7,1/6,{4}5/2-5[8:1],2/7-1[8:1],
7/2-6[8:1],2/8-5[8:1],8/2-8[8:1],7-4[8:1]/2-4[8:1],
7/2,{8}1/2,3/8,{4}4/7-4[8:1],7/2-8[8:1],
2/7-3[8:1],7/1-4[8:1],1/7-1[8:1],2-5[8:1]/7-5[8:1],
2/7,{8}8/7,1/6,{4}5/2-5[8:1],2/7-1[8:1],
7/2-6[8:1],2/8-5[8:1],8/2-8[8:1],7-4[8:1]/2-4[8:1],
7/2,{8}1/2,8/3,{4}4/7-4[8:1],7/2-8[8:1],
2/7-3[8:1],7/1-4[8:1],1/7-1[8:1],2-5[8:1]/7-5[8:1],
2/7,{8}8/3,8-5b[8:1]/3-6b[8:1],,8b/3b,,,5/4,
{16}3,4,{8}2h[8:1],{16}8,1,{8}7h[8:1],{16}5,6,{8}4h[8:1],{16}6,5,
{8}7h[8:1],{16}1,8,{4}2,6-8[8:1]*-2[8:1],6,
{8},1bh[4:1],{16},,3,4,5,6,7,8,{4}1b/4b,
,,,6V48[1:1],
,2,,8V64[1:1],
,2,,4V62[1:1],
,3,,2V84[1:1],
,3,,4V68[1:1],
,2,,8z4[1:1],
,2,,4s8[1:1],
,2,,1,
,5/4,8b/3b,{8}2-5[8:1],8-2>4-6b[8:3],
2,8,,7w3[8:1],,7,,,{4}5<8[8:1]/1>4[8:1],
5/1-5[8:1],1,{8}7-4[8:1],1-7<5-3b[8:3],
7,1,,2w6[8:1],,2,,,{4}8/4,
5/3,4h[8:1]/2h[8:1],{16}1,5,1<3[4:1],5,
{8}1,{32},,,,,,,,A1,D1,A8,D8,A7,D7,{16}A6,,,1,5,1<3b[4:1],5,
{8}1,{32},,,,,,,,A1,D1,A8,D8,A7,D7,{16}A6,,,{4}2b-6[8:1],
2b/4b,7b-3[8:1],{2}7b/5b<4[2:1],
{4},5b,,3/8-4>2[8:3],
{8}2,2-6[4:1],,6<8[8:1],,1,,2,
{4}2-4[8:1]*-5[8:1],2-7[8:1]*-8[8:1],2,{32}2b/1bh[8:1],3,4,5,{8}6,
{32},,,,7b/8bh[8:1],6,5,4,{8}3,1,{2}6bqq1[1:1]/2bqq5[1:1],
{8},,,,,,,,,8/4,
{24},8/4,,,,7/3,,,,{8}2h[4:1],,7h[4:1],
,5,3,1/5,,2,2,4,
4,3,3,8,8,{16}1,2,3,4,5,6,
7,8,1,2,3,4,5,6,7,8,{8}1h[12:1]/6h[12:1],{24},1h[12:1]/5h[12:1],,,,1h[12:1]/4h[12:1],
,,,{8}1h[12:1]/3h[12:1],{24},1h[12:1]/2h[12:1],,,,8h[12:1]/1h[12:1],,,,{8}8-5-2-7-4-1-6-3b[2:7]`1-6-3-8-5-2-7-4[2:7],{1},,,{4},,,(320),
(244)6,
6/5,6/4,6/3,6/3,
5/3,4/3,3/4,{8}3,3,
4,4,{16}5,3,5,3,6,4,6,4,{4}8xh[2:1],
,Cfh[2:1],,7bpp4[2:1],
{8},,,2,{4}2bqq5[2:1],Cf,
{8},,,7,{4}7h[4:5],{16}5b,,,3b,
,,{8}6b,{16},2b,,,{4}8b,1h[4:1],
{8}6,2/5h[4:1],,2,{4}4/3,6h[8:1]/5h[8:1],
4h[8:1]/2h[8:1],5h[8:1]/7h[8:1],1h[8:1]/2h[8:1],{8}2/1,3,
4/8,7,6/3,2,6/1,5/2,{4}3/4w8b[0.9836##0.123],
{8},,,,,,,,,,8/1,
8/1,{4}2-5[8:1]/7-5[8:1],2b/7-1[8:1],
7/2-6[8:1],2/8-5[8:1],8/2-8[8:1],7-4[8:1]/2-4[8:1],
7/2,{8}1/2,8/3,{4}4/7-4[8:1],7/2-8[8:1],
2/7-3[8:1],7/1-4[8:1],1/7-1[8:1],2-5[8:1]/7-5[8:1],
2/7,{8}8/3,8-5b[8:1]/3-6b[8:1],,8b/3b,,,5/4,
{16}3,4,{8}2h[8:1],{16}8,1,{8}7h[8:1],{16}5,6,{8}4h[8:1],{16}6,5,
{8}7h[8:1],{16}1,8,{4}2,6-8[8:1]*-2[8:1],6,
{8},1bh[4:1],{16},,3,4,5,6,7,8,{4}1b/4b,
,,6-4[8:1],6b/2b-6b[8:1],
2-4[8:1]/8-4[8:1],8/2-8[8:1],2/7-4b[8:1],7/1-5[8:1]*-6[8:1],
1,{8}8/7,8/7,{4}6/1v3[8:1],1v7[8:1],
1-5b[8:1],A1,{16}8,7,6,5,{4}4b/8b-4b[8:1]*-3b[8:1],
8b,{8}5/2,6<1[8:1]/1v4[8:1],,6b/1b,,,{4}3h[8:1]/8h[8:1],
7h[8:1]/4h[8:1],6h[8:1]/5h[8:1],{8}5/4,4/3,
3/2,2/1,{4}8/1,{16}1,8,1,8,2,1,3,8,
4,7,5,6,4,5,3,4,3,4,,,{8}6b/1b,6b/1b,
{2}6b<1[8:1]/1b>4[8:1],{4}8b/3b,{8}2-5[8:1],8-2>4-6b[8:3],
2,8,,7w3[8:1],,7,,,{4}5<8[8:1]/1>4[8:1],
5/1-5[8:1],1,{8}7-4[8:1],1-7<5-3b[8:3],
7,1,,2w6[8:1],,2,,,{4}8/4,
5/3,4h[8:1]/2h[8:1],{16}1,5,1<3[4:1],5,
{8}1,{32},,,,,,,,A1,D1,A8,D8,A7,D7,{16}A6,,,1,5,1<3b[4:1],5,
{8}1,{32},,,,,,,,A1,D1,A8,D8,A7,D7,{16}A6,,,{4}2b-6[8:1],
2b/4b,7b-3[8:1],{2}7b/5b<4[2:1],
{4},5b,,3/8-4>2[8:3],
{8}2,2-6[4:1],,6<8[8:1],,1,,2,
{4}2-4[8:1]*-5[8:1],2-7[8:1]*-8[8:1],2,6/5,
{8}7/8,6/1,,3/4,,8b/4bh[8:33],,8,
7,6,5,3,2,1,{16}8,7,6,5,
,3,2,1,8,7,6,5,,3,2,1,8,1,2,3,
,5,6,7,8,1,2,3,,5,6,7,{8}8,1,
2,3,5,6,7,8,{4}1b,
,,,,(90),
{32}5,5h[32:3],{64}7,8,1,2,{16}3,{32}8,8h[32:3],{64}6,5,4,3,{16}2,{32}1/5,6,7,8,1/6,7,8,1,2/7,8,1,2z6>6>4-8b[32:17],
{8}7bh[32:3]/3bh[32:3],{64}8x/4x,5/1,6/2,7/3,,,,,{4}Cf,{8},,,(210),
,,,,(200){2}2>3<4<5<6<7>8>1[4:7],
,,,6>5>4>3>2<1<8<7b[4:7],
{8},,,,,,,,,,,,1h[8:3],
,,8,
,7/2,{12},2,2,4,3,5,4,6,6,
4,5,4,5,3,4,2,2,4,(180)3,5,4,
7,7,4,5,4,6,5,6,3,7,4,6,
5s1[0.3333##1.92],6,4,(125)5b,,,,,,,,,,,,(90){4}Ch[4:3],
{8},,,,,,(205)7b/2b-4[8:1],
6,5-1[8:1],5,2,2h[8:1],
{16}8,7,{8}6,3-5[8:1],3,6-2[8:1],6,3,3h[8:1],
{16}1,8,{8}7,3-7[8:1],3,5>3[8:1],5,2,2,
{16}1,8,{8}1,7/2h[8:1],{16}E7,B6,{8}B5,E3/B3,E8/B7,B4/E5,
{4}B6/E6,{8}8-2[8:1],8,3-7[8:1],3,6-4[8:1],6,
{16}8,1,{8}2,6>3[8:1],6,2-6[8:1],2,8,8,
{16}7,5,{8}6,{16}3,4,{8}2,{16}6,5,{8}7,{16}3,4,{8}1,
{16}6,5,{8}8h[4:1],{16},,1,2,{8}3,E7/B7,E3/B3,B5/E5,
{4}1qq2[4:3],Cf,{8},,,5,
{4}5qq6[4:3],Cf,{8},,,2,
{4}2,{16}1b-4[16:1],,,5b-8[16:1],,,{8}3b-6[16:1],{16},7b-2[16:1],,,{8}4b,
4,{4}8h[4:1],{8},7h[4:1]/1h[4:1],,,{4}6/2,
1/5h[8:1],{16}1/5h[8:1],2,{8}3,{4}6h[8:1],
{16}2/6h[8:1],3,{8}4,{4}7h[8:1],{16}3/7h[8:1],4,{8}5,{4}8h[8:1],
{16}4/8h[8:1],5,{8}6,8,8,8,8,{16}7,1,7,1,
6,2,5,3,{4}4b/Cf,{12},,,,,,,,,(200)2,
2,4,3,5,4,6,6,4,
5,3,4,(180)2,2,4,3,5,4,7,7,4,
5-8[0.3333##0.1389],4,6,(108)5bp1[8:3]*q8[8:5],,,,,,,,,,,,(266){4}8b/2b-5[8:1],
7<4[8:1],{16}4,3,2,1,
8,7,6,5,{4}4/7b-4[8:1],2>5[8:1],{16}5,6,7,8,
1,2,3,4,{4}5h[8:1],{8}2/5h[16:1],5h[16:1],5h[16:1],{16}1,2,
3,4,1,8,{4}7h[4:1],{8}8,7h[16:1]/1h[16:1],6h[16:1]/2h[16:1],5h[16:1]/3h[16:1],
,5/3,{4}5/3,6b/2b-6[8:1],{8}8,8h[4:1],
{16},,6h,5$,4,3$,2h,1$,{4}8/7-3[8:1],{8}1,1h[4:1],
{16},,3,4,5,6,7,8,{4}1/2h[4:1],{16}8,7,6,5,
4,3,2,1,8h`4$,7$/3h,2$`6$,5$/1h,{4}8/4h[4:1],{8}1,1q6[4:1]*-3-6[4:1],
1,{16},,,,,,,,7,5,{8}7,4$,
3,{16}2$,4,{8}2,5$,6,{16}7,8,7$,8,{8}6,
6$,{16}2,1,2$,1,3,8$,3$,8,{8}2b,{4}2b,
{16}2$,4$,2$,4$,{8}2$,{16}7$,5$,7$,5$,{8}7$,,8/4h[4:1],
{16},,A8,E8,E7,A6,A1,B1,C,B5,A2,E3,E4,A4,{8}6h[8:3],
,,7b-4[8:1],1-3[8:1],7,1,,5/2,
{16},,7,5,{8}6,6/5,7/4,7h[4:1]/4>1[8:1],,4b,
,8-6[8:1],8-2[8:1],8-5[8:1],8-3[8:1],8,{4}8,
{8},8-6[8:1],8-2[8:1],8-5[8:1],8-3[8:1],8,{4}8,
{8},8-6[8:1],8-2[8:1],8-5[8:1],8-3[8:1],8,{4}8,
{16},8-6[8:1],,8-2[8:1],,8-5[8:1],,8-3[8:1],,8,,8,,,,,{8}8-6[8:1],
8-2[8:1],8-5[8:1],8-3[8:1],{2}8-4-8-4-8-4-8-4-8-4-8-4-8[1:1],
,8?w4[2:1],
{4},,7/2,1-7b[8:1],
6-2b[8:1],5h[8:1],{16}5/1,4/8,3/7,2/6,{4}1/5-1b[8:1],
3-7b[8:1],4h[8:1],{16}8/4,1/5,2/6,3/7,{4}4/8-4b[8:1],
4,{8}6/2,6/2,{4}7/1,{24}8b/7b,6/1,5/2,4h[8:1]/3h[8:1],,,,,,1b/2b,
3/8,4/7,{4}5h[8:1]/6h[8:1],4/7,8b/1b,
{16}1b,2,3,4,7,8,1,2,5,6,7,8,3,4,5,6,
1,2,3,4,{4}8,6/2,{16}3bh[32:1],5h[32:1],3h[32:1],5h[32:1],
4h[32:1],6h[32:1],4h[32:1],6h[32:1],3h[32:1],7h[32:1],3h[32:1],7h[32:1],2h[32:1],8h[32:1],2h[32:1],8h[32:1],{4}E3/B3f/E4,
{8},,7,8,{4}1,{8}2b/4b,5,
5,4b/6b,3,3,4b/2b,1,1,6b/8b,
7,7,{4}8b/1b,6b/3b,{16}1/7bh,2,3/7h,4,
5,6,7,8/5bh,1,2/5,3,4,5,6/3bh,7,8/3,1,2,{8}3,
4/8bh,8h/4h[4:1],{32}D7,E6/D6,E5/D5,E4/D4,E3/D3,E2/D2,D1/E1,D8/E8,E7/A6,E6/A5,E5/A4,E4/A3,E3/A2,E2/A1,E1/A8,E8/A7,Cf/E7/A6,E6/A5,{4},{16},{64},{192},{48}4b/6b,
,,,,,3,,,,,,3,,,,,,4b/2b,,,,,,1,,,,,,1,,,,,,6b/8b,,,,,,7,
,,,,,7,,,,,,8b/1b,,,,,,,,,,,,6b/3b,,,,,,,,,,,,1/7bh,,,2,,,3/7h,,,{24}4,
{48},5,,,6,,,7,,,{24}8/5bh,{48},1,,,2/5,,,3,,,{24}4,{48},5,,,6/3bh,,,7,,,{24}8/3,{48},1,,,2,,,3,,,,,,4/8bh,
,,,,,8h/4h[4:1],,,,,,D7,{96},E6/D6,,,E5/D5,,,E4/D4,,,{48}E3/D3,{96},E2/D2,,,D1/E1,,,D8/E8,,,{48}E7/A6,{96},E6/A5,,,E5/A4,,,E4/A3,,,{48}E3/A2,{96},E2/A1,,,E1/A8,,,E8/A7,,,{48}Cf/E7/A6,{96},E6/A5,{4},{16},{64},,{96},{24}4b/6b,
,,3,,,{12}3,{24},4b/2b,,,1,,,1,,,{12}6b/8b,
{24},7,,,7,,,8b/1b,,,,,,6b/3b,,,,,,1/7bh,{48},2,,,3/7h,,,4,
,,{24}5,{48},6,,,7,,,8/5bh,,,{24}1,{48},2/5,,,3,,,4,,,{24}5,{48},6/3bh,,,7,,,8/3,,,{24}1,{48},2,,,{12}3,
{24},4/8bh,,,8h/4h[4:1],{96},,,,,,,,D7,,,E6/D6,,,{48}E5/D5,{96},E4/D4,,,E3/D3,,,E2/D2,,,{48}D1/E1,{96},D8/E8,,,E7/A6,,,E6/A5,,,{48}E5/A4,{96},E4/A3,,,E3/A2,,,E2/A1,,,{48}E1/A8,{96},E8/A7,,,Cf/E7/A6,,,E6/A5,{4},{16},{64},,{96},{16}4b/6b,
,3,,3,,4b/2b,,1,,1,,6b/8b,
,7,,7,,8b/1b,,,,6b/3b,,,,1/7bh,2,3/7h,
4,5,6,7,8/5bh,1,2/5,3,4,5,6/3bh,7,8/3,1,2,3,
,4/8bh,,8h/4h[4:1],{32},,D7,E6/D6,E5/D5,E4/D4,E3/D3,E2/D2,D1/E1,D8/E8,E7/A6,E6/A5,E5/A4,E2/A1/E4/A3,E1/A8/E3/A2,E8/A7,Cf/E7/A6,E6/A5,{4},{16},,{64},{192},{24}4b/6b,
,,3,,,3,,,{12}4b/2b,{24},1,,,1,,,6b/8b,
,,{12}7,{24},7,,,{12}8b/1b,,,6b/3b,{48},,,,,,,,1/7bh,,,2,,,{24}3/7h,
{48},4,,,5,,,6,,,{24}7,{48},8/5bh,,,1,,,2/5,,,{24}3,{48},4,,,5,,,6/3bh,,,{24}7,{48},8/3,,,1,,,2,,,{24}3,
,,{12}4/8bh,{24},8h/4h[4:1],{96},,,,,,,,D7,,,E6/D6,,,{48}E5/D5,{96},E4/D4,,,E3/D3,,,E2/D2,,,{48}D1/E1,{96},D8/E8,,,E7/A6,,,E6/A5,,,{48}E5/A4,{96},E4/A3,,,E3/A2,,,E2/A1,,,{48}E1/A8,{96},E8/A7,,,Cf/E7/A6,,,E6/A5,,,,,,,,,,,,,(500){4},
(244),{6}8h[12:1]/7h[12:1],8h[12:1]/7h[12:1],8h[12:1]/7h[12:1],
6h[12:1]/1h[12:1],5h[12:1]/2h[12:1],4h[12:1]/3h[12:1],3h[12:1]/2h[12:1],2h[12:1]/1h[12:1],8h[12:1]/1h[12:1],
8h[12:1]/7h[12:1],7h[12:1]/6h[12:1],6h[12:1]/5h[12:1],4h[12:1]/5h[12:1],4h[12:1]/3h[12:1],3h[12:1]/2h[12:1],
2h[12:1]/1h[12:1],8h[12:1]/1h[12:1],8h[12:1]/7h[12:1],7h[12:1]/6h[12:1],6h[12:1]/5h[12:1],4h[12:1]/5h[12:1],
4h[12:1]/3h[12:1],3h[12:1]/2h[12:1],2h[12:1]/1h[12:1],8h[12:1]/1h[12:1],8h[12:1]/7h[12:1],7h[12:1]/6h[12:1],
6h[12:1]/5h[12:1],4h[12:1]/5h[12:1],4h[12:1]/3h[12:1],3h[12:1]/2h[12:1],2h[12:1]/1h[12:1],8h[12:1]/1h[12:1],
8h[12:1]/7h[12:1],7h[12:1]/6h[12:1],6h[12:1]/5h[12:1],4h[12:1]/5h[12:1],4h[12:1]/3h[12:1],3h[12:1]/2h[12:1],
2h[12:1]/1h[12:1],8h[12:1]/1h[12:1],8h[12:1]/7h[12:1],7h[12:1]/6h[12:1],6h[12:1]/5h[12:1],4h[12:1]/5h[12:1],
4h[12:1]/3h[12:1],3h[12:1]/2h[12:1],2h[12:1]/1h[12:1],8h[12:1]/1h[12:1],8h[12:1]/7h[12:1],7h[12:1]/6h[12:1],
6h[12:1]/5h[12:1],4h[12:1]/5h[12:1],4h[12:1]/3h[12:1],3h[12:1]/2h[12:1],2h[12:1]/1h[12:1],8h[12:1]/1h[12:1],
8h[12:1]/7h[12:1],7h[12:1]/6h[12:1],6h[12:1]/5h[12:1],4h[12:1]/5h[12:1],4h[12:1]/3h[12:1],3h[12:1]/2h[12:1],
2h[12:1]/1h[12:1],8h[12:1]/1h[12:1],1h[12:1]/2h[12:1],2h[12:1]/3h[12:1],{12}3h[#0.08197021]/4h[#0.08197021],(205),{24},{8}5xh[8:7],
,,,,,,{4}4h[1:1],
,,,8h[16:71],
,,,,,,,,,,,,,,,,1h[16:3],
B7/E7/B6/A6/D7/A7/B2/B3/E3/A2/A3/D3/Ch[16:0],{1},,,,,,,,,,,,,,,,,{4},,,7?-2b[0.2927##0.1875]`3?-6[0.2927##0.1875],
(160){2},
{4},1?q4-2-4-8-4p1-3-1-5-7[2:3]/8?p5-7-5-1-5q8-6-8-4-2[2:3],{16}Cf,Cf,Cf,Cf,{8}Cf,Cf,
{16}Cf,Cf,Cf,Cf,{8}Cf,Cf,{16}Cf,Cf,Cf,Cf,{8}Cf,Cf,
{48}Cf/A1/D2/D3/A2/E3/A3/D4/B2/B3/E4/E5/B4/A4/D5/D1/D6/D7/E7/A7/B8/B6/D8/E8/A5/A8/B5/B1/E6/B7/E1/A6/E2,Cf/A1/D2/D3/A2/E3/A3/D4/B2/B3/E4/E5/B4/A4/D5/D1/D6/D7/E7/A7/B8/B6/D8/E8/A5/A8/B5/B1/E6/B7/E1/A6/E2,Cf/A1/D2/D3/A2/E3/A3/D4/B2/B3/E4/E5/B4/A4/D5/D1/D6/D7/E7/A7/B8/B6/D8/E8/A5/A8/B5/B1/E6/B7/E1/A6/E2,Cf/A1/D2/D3/A2/E3/A3/D4/B2/B3/E4/E5/B4/A4/D5/D1/D6/D7/E7/A7/B8/B6/D8/E8/A5/A8/B5/B1/E6/B7/E1/A6/E2,Cf/A1/D2/D3/A2/E3/A3/D4/B2/B3/E4/E5/B4/A4/D5/D1/D6/D7/E7/A7/B8/B6/D8/E8/A5/A8/B5/B1/E6/B7/E1/A6/E2,Cf/A1/D2/D3/A2/E3/A3/D4/B2/B3/E4/E5/B4/A4/D5/D1/D6/D7/E7/A7/B8/B6/D8/E8/A5/A8/B5/B1/E6/B7/E1/A6/E2,Cf/A1/D2/D3/A2/E3/A3/D4/B2/B3/E4/E5/B4/A4/D5/D1/D6/D7/E7/A7/B8/B6/D8/E8/A5/A8/B5/B1/E6/B7/E1/A6/E2,Cf/A1/D2/D3/A2/E3/A3/D4/B2/B3/E4/E5/B4/A4/D5/D1/D6/D7/E7/A7/B8/B6/D8/E8/A5/A8/B5/B1/E6/B7/E1/A6/E2,Cf/A1/D2/D3/A2/E3/A3/D4/B2/B3/E4/E5/B4/A4/D5/D1/D6/D7/E7/A7/B8/B6/D8/E8/A5/A8/B5/B1/E6/B7/E1/A6/E2,Cf/A1/D2/D3/A2/E3/A3/D4/B2/B3/E4/E5/B4/A4/D5/D1/D6/D7/E7/A7/B8/B6/D8/E8/A5/A8/B5/B1/E6/B7/E1/A6/E2,Cf/A1/D2/D3/A2/E3/A3/D4/B2/B3/E4/E5/B4/A4/D5/D1/D6/D7/E7/A7/B8/B6/D8/E8/A5/A8/B5/B1/E6/B7/E1/A6/E2,Cf/A1/D2/D3/A2/E3/A3/D4/B2/B3/E4/E5/B4/A4/D5/D1/D6/D7/E7/A7/B8/B6/D8/E8/A5/A8/B5/B1/E6/B7/E1/A6/E2,Cf/A1/D2/D3/A2/E3/A3/D4/B2/B3/E4/E5/B4/A4/D5/D1/D6/D7/E7/A7/B8/B6/D8/E8/A5/A8/B5/B1/E6/B7/E1/A6/E2,Cf/A1/D2/D3/A2/E3/A3/D4/B2/B3/E4/E5/B4/A4/D5/D1/D6/D7/E7/A7/B8/B6/D8/E8/A5/A8/B5/B1/E6/B7/E1/A6/E2,Cf/A1/D2/D3/A2/E3/A3/D4/B2/B3/E4/E5/B4/A4/D5/D1/D6/D7/E7/A7/B8/B6/D8/E8/A5/A8/B5/B1/E6/B7/E1/A6/E2,Cf/A1/D2/D3/A2/E3/A3/D4/B2/B3/E4/E5/B4/A4/D5/D1/D6/D7/E7/A7/B8/B6/D8/E8/A5/A8/B5/B1/E6/B7/E1/A6/E2,
E
